#TITLE:linkin park;
#SUBTITLE:- breaking the habit;
#ARTIST:linkin park;
#TITLETRANSLIT:;
#SUBTITLETRANSLIT:;
#ARTISTTRANSLIT:;
#CREDIT:omega1332;
#BANNER:;
#BACKGROUND:;
#LYRICSPATH:;
#CDTITLE:;
#MUSIC:linkin park - breaking the habit.mp3;
#OFFSET:0.340;
#SAMPLESTART:100.000;
#SAMPLELENGTH:12.000;
#SELECTABLE:YES;
#BPMS:0.000=170.000;
#STOPS:;
#BGCHANGES:;
// cache tags:
#FIRSTBEAT:0.000;
#LASTBEAT:563.146;
#SONGFILENAME:Songs/Music V.I.P ^_^/linkin park - breaking the habit/linkin park - breaking the habit.sm;
#HASMUSIC:1;
#HASBANNER:0;
#MUSICLENGTH:196.123;
// end cache tags

//---------------dance-single - easy(16)----------------
#NOTES:
     dance-single:
     easy(16):
     Easy:
     16:
     1.000,1.000,1.000,0.775,1.000,1669.000,656.000,152.000,0.000,156.000:
0000
0000
0000
0000
0000
0000
0000
0000
0000
0000
0000
0000
0000
0000
0000
0000
0000
0000
0000
0000
0000
0000
0000
0000
0000
2200
0000
0000
0000
0000
0000
0000
0002
0000
0000
0000
0000
3000
0000
0000
0300
0000
0200
0000
2000
0000
0000
0003
,
0000
0000
0001
0000
0000
0000
0000
0000
0000
0000
0000
0000
0000
0000
0000
0000
0000
0002
0000
0000
3000
0000
0000
0300
0000
0000
0100
0000
1000
0000
0000
0000
0000
0000
0000
0000
0000
1100
0000
0000
0000
0000
0000
0000
0000
0000
0000
0100
,
0000
0000
0000
0000
0000
0000
0000
0000
0000
0000
1000
0000
0000
0000
0000
0000
0000
0000
0000
0000
0010
0000
0000
0000
0000
1000
0000
0000
0000
0000
0100
0000
0000
0000
0000
0000
0003
0000
2200
0000
0000
0000
0000
0000
0000
0000
0002
0000
,
0000
0000
0000
3000
0000
0000
0300
0000
0000
0000
0000
0100
0000
1000
0000
0003
0000
0002
0000
0000
0000
0000
0000
0000
0000
0110
0000
0000
0000
0000
0000
0000
0010
0000
0000
0000
0000
0000
0000
0000
0000
0000
0100
0000
0000
0000
0000
0000
,
0000
0010
0000
1100
0000
0000
0000
0000
0000
0000
0000
0010
0000
0000
1100
0000
0000
0000
0000
0000
0000
0000
0000
0000
1000
0000
0000
0000
0000
0000
0000
0000
0000
0000
0000
0000
0000
0000
0000
0010
0000
0000
0000
0000
0000
0000
0000
0000
,
0000
0000
0000
0000
0000
0010
0000
0000
1100
0000
0010
0000
1000
0100
0000
0000
0010
1100
0003
0000
0001
0010
0000
1100
0000
0011
0000
1000
0000
0101
0000
0010
0000
1100
0000
0000
0011
0000
0000
0000
1001
0000
0000
0000
0000
0000
0000
0001
,
0000
0001
0000
0010
0000
1100
0011
0000
0000
1100
0001
0010
0000
0000
1100
0000
0011
0000
1000
0000
0100
0000
0011
0000
0000
1001
0000
0000
0000
0000
0200
0000
0000
0000
0000
0000
0000
0000
0000
2000
0000
0000
0000
0000
0000
0302
0000
0000
,
0000
0000
0000
0000
0000
3000
0000
0000
0000
0000
0200
0000
0000
0000
0000
0003
0000
0000
2000
0000
0000
0000
0302
0000
0000
0000
0000
0000
0000
0000
3000
0020
0000
0000
0000
0000
0000
0000
0000
2003
0000
0000
0030
0000
0002
0000
0000
0000
,
0000
0000
0000
0000
0000
3000
0000
0020
0000
0000
0000
0000
0000
0003
0000
2000
0000
0000
0000
0000
0000
0000
0000
0030
0000
0001
0000
0200
0000
0000
3000
0000
0000
0000
0000
0000
0000
0000
0000
0002
0000
0000
0000
0000
0300
0000
0000
0000
,
0000
0000
0000
0020
0000
0000
0000
0000
0003
2000
0000
0000
0000
0000
0000
0000
0032
0000
0000
0000
0200
0000
0000
0000
3000
0000
0000
0000
0000
0000
0000
0000
0300
0000
0000
0000
0010
0000
0000
0000
0000
0000
0000
0000
0000
0003
1000
2000
,
0000
0000
0001
0000
0200
0000
0000
0000
0000
3000
0000
0000
0000
0002
0000
0000
0000
0000
0300
0000
0000
0000
0000
0020
0000
0000
0000
0000
0003
0000
0000
0000
2000
0000
0000
0030
0000
0000
0100
0200
0000
0000
0000
0000
0000
3002
0000
0000
,
0000
0000
0300
0000
0000
0000
0000
0000
0000
0000
0000
0000
0020
0000
0200
0000
0000
0003
0000
0002
0000
0000
0000
2030
0000
0000
0000
0000
0000
0000
0000
0000
0000
0000
0000
0300
0000
0000
0000
0000
3000
0010
0000
0000
0000
0000
0000
0000
,
0000
0000
0000
0000
0100
1000
0000
0000
0000
0010
0000
0103
0000
1000
0000
0011
1100
0000
0011
0000
0100
1000
0000
0001
0010
0000
1100
0000
0011
0000
0000
0000
1100
0000
0011
0000
1100
0000
0000
0001
0000
0000
1000
0000
0000
0101
0000
0000
,
0000
0000
1101
0000
0011
0000
0000
0000
1100
0000
0011
1000
0100
0000
0011
0000
0000
1100
0000
0001
0010
0000
0000
1100
0000
0000
0010
0001
0000
0000
0000
0001
0000
0000
0000
0000
1001
0000
0000
0011
0000
1100
0000
0000
0000
0011
0000
1100
,
0001
0010
0000
0000
1100
0000
0011
0000
0100
1000
0000
0000
0011
0000
1100
0000
0001
0000
0010
0000
1201
0000
0000
0000
0000
0000
0000
0000
0000
0000
1000
0000
0000
0000
0002
0000
0000
0000
0000
0300
0000
0000
0000
0000
0010
0000
0000
0000
,
0000
0000
0000
0000
0000
0000
0000
0000
1100
0000
0000
0000
0003
1000
0000
0002
0000
0000
0000
0000
0000
0000
0020
0000
0000
0000
0000
0000
0000
0000
0000
0000
2003
0000
0030
0000
0000
0000
0000
0100
0000
0000
0000
0000
0002
0000
3000
0000
,
0000
0000
0000
0000
0000
0000
0020
0000
0000
0000
0000
0003
0000
2000
0000
0000
0000
0030
0001
0000
0000
0000
0200
0000
0000
0000
0000
0000
0002
0000
3000
0000
0300
0000
0000
0000
0000
0010
0000
0000
0000
0000
0000
0000
0000
1000
0000
0000
,
0000
0100
0000
1103
0000
0011
0000
0000
1100
0000
0011
0000
1000
0100
0001
0010
0000
0000
1100
0000
0001
0000
0010
0000
1000
0001
0000
0000
0000
0000
0000
0001
0000
0000
0001
0000
1000
0100
0000
0000
0000
0001
1000
0100
0000
0011
0000
0000
,
1100
0000
0011
0000
0000
1000
0110
0001
0000
0000
1100
0000
0011
0000
0000
0000
1100
0000
0011
0000
0000
1100
0000
0011
0000
0000
0000
1100
0000
0010
0000
0001
1100
0000
0000
0001
0010
0000
0001
0000
0000
0000
0000
0001
0000
0000
1100
0000
,
0011
0000
0000
1100
0001
0010
0000
1000
0100
0000
0000
0011
0000
0000
1000
0100
0000
0010
0000
0001
1100
0000
0001
0010
0000
0000
1000
0000
0000
0000
0001
1000
0000
0000
0100
0000
0000
0011
0000
0000
1100
0000
0001
0010
1000
0100
0000
0000
,
0011
0000
0000
0000
1100
0000
0011
0000
1100
0000
0000
0011
0000
1000
0000
0100
0000
0001
0010
1100
0000
0000
0001
0010
0000
0000
0000
0000
1000
0000
0000
0000
0000
1101
0000
0000
0000
0011
0000
1100
0000
0000
0011
0000
1100
0000
0000
0001
,
0010
0000
1100
0000
0001
0010
0000
0000
1100
0000
0000
0011
0000
1000
0000
0100
0000
0011
0000
1100
0000
0001
0000
0010
0000
1000
0000
0000
0001
0000
1000
0000
0000
0001
0000
1000
0000
0000
0000
0000
0000
0000
0000
0000
0000
0001
0200
0001
,
0000
0000
0000
0000
0000
0000
0000
0000
2000
0000
0002
0000
0000
0300
0000
0000
0000
0000
3000
0000
0000
0000
0000
0000
0000
0000
0000
0000
0000
0000
0000
0100
0000
0000
2000
0003
0000
0000
0000
0002
0000
0000
0000
0000
0000
0000
0000
3000
,
0010
0000
0000
0000
0000
0000
0000
0000
0100
0000
0000
0000
0000
1000
0000
0000
0000
0000
0000
0000
0000
0000
0010
0000
0000
0000
0000
1000
0000
0200
0000
0000
0000
0000
0000
0000
0000
2000
0000
0300
0000
0000
0000
0000
0000
0000
0000
0000
,
0000
3200
0000
0000
0000
0000
0000
0000
0000
0000
0000
0000
0300
1000
0000
0000
0000
0100
0000
0000
1000
0000
0000
0000
0000
0000
0000
0010
0000
0000
0000
0000
0000
0000
0000
0000
0000
0000
0000
0010
0000
0000
0000
1100
0000
0010
0000
1100
,
0000
0000
0010
0000
1000
0100
0000
0000
0010
0000
1100
0000
0000
0000
0010
1000
0000
0100
0010
0000
0000
1000
0000
0000
0000
0010
0000
1000
0000
0000
0000
0000
0000
0000
0000
0000
0000
0000
0000
0000
0000
0000
0010
0000
0000
0000
0000
0000
,
0000
0010
0000
1103
0002
0010
0000
0000
1100
0000
0010
0000
0000
0000
1100
0000
0010
0000
0000
1100
0000
0010
0000
0000
1100
0000
0000
0010
0000
1103
0000
0000
0000
0011
0000
1100
0000
0000
0011
0000
0000
1100
0000
0000
0001
0000
0000
0000
,
1101
0000
0000
0011
0000
1100
0000
0000
0001
0010
0000
1100
0000
0011
0000
1000
0000
0100
0001
0010
0000
0000
1100
0000
0011
0000
0000
0000
0000
0000
0101
0000
0000
0000
0000
1101
0000
0011
0000
0000
1100
0000
0001
0010
0000
0000
1100
0000
,
0011
0000
0000
0000
1100
0011
0000
0000
0000
1000
0000
0000
0010
0001
0000
1100
0000
0000
0001
0000
0000
0000
0000
0000
0000
0000
0000
0000
0100
0000
0100
0000
0000
0000
0000
0100
0000
0000
0000
0000
0000
0000
0100
0000
0000
0000
0000
0000
,
0000
0000
0000
0000
0000
0000
0000
0000
0000
0000
0000
0000
0000
0000
0000
0000
0000
1000
0000
0000
0000
0010
0001
0000
1100
0000
0000
0000
0011
1000
0000
0100
0001
0010
0000
1100
0000
0000
0000
0201
0000
0000
0000
0000
0000
0000
0000
0000
,
0000
0000
0000
0000
0000
0000
0000
0000
0002
0000
0000
0000
0000
0300
0000
0000
0000
0000
0000
0000
1003
0000
0000
0000
0000
1100
0000
0001
0000
0010
1100
0000
0000
0011
0000
0000
1100
0000
0001
0000
0010
0000
1101
0000
0000
0000
0000
0000
,
0000
0100
0000
0010
0000
0000
1100
0000
0011
0000
0000
0000
1100
0000
0001
0000
0000
1001
0000
0100
0000
0000
0000
0111
0000
0000
0000
0200
0000
0000
0000
0000
0000
0000
0000
0000
0000
0000
0000
0000
0000
0000
0000
0000
0000
0000
0000
0000
,
0000
0001
0000
0000
0000
0000
0000
0000
0000
0000
0000
0300
0000
0000
0000
0000
0000
0000
0000
0001
0000
0000
0000
0001
1100
0000
0000
0000
0001
0000
1100
0000
0000
0000
0001
1000
0100
0000
0000
0001
0000
0110
1000
0000
0000
0011
0000
0000
,
1100
0000
0001
0010
0000
0000
1100
0000
0011
0000
0000
0000
1100
0000
0000
0001
0000
0000
0100
1000
0000
0011
0000
0000
0000
0000
0000
0000
0101
0000
0000
0000
0000
0000
0000
0101
0000
0000
0000
0000
1101
0000
0000
0000
0000
0000
0000
1100
,
0000
0000
0000
1101
0000
0000
0000
0000
1101
0000
0000
0000
0000
0000
1101
0000
0000
0000
0000
1101
0000
0000
0000
0000
0000
1101
0000
0000
0000
0100
1001
0000
0000
0000
1101
0000
0000
0000
0000
0101
1000
0000
0000
0000
0000
1101
0000
0000
,
0000
0000
0101
1000
0000
0000
0000
0000
0001
0000
0000
0000
0001
0110
0000
0000
0000
0001
0110
0000
0000
0000
0000
0001
0110
0000
0000
0000
0111
0000
0000
0000
0000
0011
0000
0100
0000
1000
0000
0010
0000
0000
0000
1000
0100
0000
0010
0000
,
0000
1100
0000
0010
0000
0000
0000
1100
0000
0010
0000
0000
1100
0000
0010
0000
0000
0000
1000
0000
0000
0000
0000
0000
0000
0000
0000
0000
0000
0000
0000
1000
0000
0000
0000
0010
0000
1000
0100
0000
0010
0000
1000
0100
0000
0010
0000
0000
,
0000
1100
0000
0010
0000
0000
1100
0000
0010
0000
0000
0000
1100
0000
0010
1000
0000
0100
0000
0010
0000
1000
0000
0100
0000
0000
0000
0011
1000
0100
0000
0001
0010
0000
1000
0000
0001
0010
0000
0000
1000
0000
0001
0010
0000
1000
0000
0001
,
0010
1000
0000
0000
0000
0011
0000
1000
0000
0000
0011
0000
1000
0000
0000
0000
0011
0000
0000
1000
0000
0011
0000
0000
0000
1000
0000
0000
0011
0000
0000
0000
0000
0000
0000
0000
0000
0000
0000
0000
0000
0000
0100
0000
0000
0000
0000
0000
,
0000
0000
0000
0000
0000
0100
0000
0000
0000
0000
0000
0000
0000
0000
0000
0000
0000
0100
0000
0000
1000
0000
0000
0000
0000
0000
0000
0000
1000
0100
0000
0000
0000
0000
1100
0000
0000
0000
0000
0000
0000
0000
0000
0000
1100
0000
0000
0000
,
0000
0000
0000
0000
0000
0000
1100
0000
0000
0000
0000
0000
0000
0000
0000
0000
0000
0000
1101
0000
0000
0000
1101
0000
0000
0000
0000
1101
0000
0000
0000
0000
0000
1101
0000
0000
0000
0100
1001
0000
0000
0000
1101
0000
0000
0000
0000
1101
,
0000
0000
0000
0000
0100
1001
0000
0000
0000
0001
0000
0000
1100
0000
0011
0000
0000
1100
0000
0011
0000
0000
0000
1100
0000
0011
0000
0000
0000
1100
0000
0011
0000
0000
0000
1100
0000
0001
0010
0000
0000
0000
1000
0000
0001
0000
0000
0000
,
0000
0000
0000
0001
0000
0000
1100
0000
0011
0000
0000
1100
0000
0011
0000
0000
0000
1100
0000
0011
0000
1000
0000
0100
0010
0001
0000
1000
0100
0000
0010
0001
0000
0000
1100
0000
0001
0000
0000
1000
0000
0001
0000
0000
0000
0011
0000
1100
,
0000
0000
0000
0011
0000
1100
0000
0000
0011
0000
1100
0000
0000
0000
0011
0000
1100
0000
0000
0011
0000
0000
0000
1100
0000
0011
0000
0000
0000
1100
0000
0011
0000
0000
0000
1100
0000
0000
0011
0000
1100
0000
0000
0000
0011
0000
0000
0000
,
0000
1100
0001
0000
0000
0011
0000
1100
0000
0000
0011
0000
0000
0000
1100
0000
0001
0010
0000
0000
0000
0111
0000
0000
0000
0000
0001
0110
0000
0000
0000
0011
0000
0100
0000
0000
0001
0110
0000
0000
0000
0000
0111
0000
0000
0000
0000
0111
,
0000
0000
0000
0000
0000
0111
0000
0000
0000
0000
0111
0000
0000
0000
0000
0000
1101
0000
0000
0000
0100
1001
0000
0000
0000
0101
1000
0000
0000
0000
0001
0000
1100
0000
0000
0000
1101
0000
0000
0000
0000
1101
0000
0000
0000
0000
0000
1101
,
0000
0000
0000
0000
1010
0000
0000
0000
0000
0000
1010
0000
0000
0010
1000
0000
0000
0000
0000
0010
1000
0000
0000
0000
0000
1010
0000
0000
0000
0000
0000
1010
0000
0000
0000
0000
1010
0000
0000
0000
0000
1000
0000
0000
0000
0000
0000
0000
,
0000
0000
0010
0000
0000
0000
0000
0000
0000
0000
1000
0000
0000
0000
0000
0010
0000
1000
0000
0100
0000
0000
0010
0000
1100
0000
0000
0000
0010
1100
0000
0000
0000
0010
0000
1100
0000
0010
0000
0000
1100
0000
0000
0010
0000
0000
1100
0000
,
0000
0010
0000
1000
0100
0000
0000
0010
0000
1000
0000
0000
0010
0001
0000
0000
1100
0000
0001
0000
0000
1000
0000
0000
0000
0000
0000
0000
0000
0000
1101
0000
0000
0011
0000
0000
0000
0000
0000
0000
1001
0000
0000
0000
0011
0000
0000
0000
,
0000
0010
0001
0000
0000
1000
0000
0011
0000
0000
1000
0000
0011
0000
0000
0000
1000
0000
0011
0000
0000
1000
0000
0011
0000
0000
0000
1000
0000
0001
0000
0000
1000
0000
0001
0000
0000
0000
0000
0001
0000
0000
0000
0011
0000
1000
0000
0000
,
0011
0000
1000
0000
0000
0011
0000
0000
1000
0000
0001
0010
0000
1000
0000
0000
0000
0011
0000
0000
0000
0201
0000
0000
0000
0000
0000
0000
0000
0000
0000
0000
0000
0000
0000
0000
0000
0000
0000
0000
0000
0000
0000
0000
2000
0000
0000
0000
,
0000
0000
0002
0000
0000
0000
0000
0300
3000
0000
0000
0000
0200
0000
0000
0000
0000
0000
0000
0003
0000
0000
1000
0000
0002
0000
0000
0000
0000
0000
0000
0000
0300
0000
0000
0000
0000
0000
0000
0000
0020
0000
0000
0000
0000
0003
2000
0000
,
0000
0000
0000
0030
0000
0000
0000
0002
0000
0000
0000
0100
0000
0000
3000
0000
0000
0000
0000
0000
0000
0000
0000
0000
0200
0000
0000
0003
0000
0000
1000
0000
0000
0000
0002
0000
0000
0000
0000
0000
0300
0000
0000
0000
0000
0200
0000
0000
,
0000
0000
0000
0000
0000
0000
0000
0000
0000
0000
0003
0000
0000
0000
0000
1000
0000
0300
0000
0000
0001
0200
0000
0000
0000
0000
0000
2000
0000
0000
0000
0001
0000
0000
0000
0000
0000
0000
0000
0000
0000
0000
0000
0000
0001
3000
2000
0000
,
0300
0000
0000
0100
0000
0000
0000
0000
0000
0000
0000
3200
0000
0000
1000
0000
0000
0000
0000
0000
0000
0000
0000
0000
0000
0000
1000
0000
0000
0000
0001
0000
0000
0000
1000
0000
0000
0000
0000
0000
0000
0000
0000
1000
0000
0000
0000
0002
,
0000
0000
0000
0000
0000
0000
0300
0000
0000
0000
0000
0020
0000
0000
0000
0000
0003
2000
0000
0000
0000
0000
0000
0032
0100
0000
0000
0000
3000
0000
0200
0000
0000
0003
0000
0000
0000
0000
0000
0000
0000
1000
0000
0000
0000
0002
0000
0000
,
0000
0000
0000
0000
0000
0000
0000
1300
0000
0000
0000
0000
0000
0000
0000
0000
0010
0000
0003
1000
0000
0000
0000
0002
0000
0000
0100
0000
0000
0000
0000
0000
0000
1000
0000
0000
0000
0000
0000
0000
0000
0000
0200
0000
0000
0000
0003
0000
,
2000
0000
0000
0000
0001
0300
0000
0000
0200
0000
0000
0000
0000
0000
0000
0000
3000
0002
0000
0000
0000
0000
0000
0300
0000
0000
0000
0000
0010
0000
0003
0000
0000
0000
0001
0000
0000
0000
1000
0000
0000
0200
0000
0000
0000
0000
0000
0000
,
0000
0000
0000
0000
0000
0002
1300
0000
0000
0000
0000
0000
0000
0020
0000
0000
0000
0000
0003
0000
2000
0000
0000
0000
0000
0000
0000
0000
0000
0000
0030
0000
0200
0000
0000
0000
0000
0000
0001
3000
0000
0000
0000
0000
0000
0000
0300
0000
,
0000
0000
0101
0010
0000
1000
0000
0000
0000
0000
0101
0000
0000
0001
0000
1100
0000
0000
0001
0010
0000
1100
0000
0011
0000
0000
1100
0000
0011
0000
0100
1000
0000
0000
0011
0000
1100
0000
0001
0010
0000
0000
1100
0000
0011
0000
0000
1100
,
0000
0000
0001
0010
0000
1100
0000
0000
0000
0011
0000
0100
1000
0000
0011
0000
0000
0000
1100
0000
0000
0000
0011
0000
1100
0001
0000
0010
0000
0000
1100
0000
0000
0011
0000
0000
0000
1100
0000
0001
0000
0000
1000
0000
0001
0000
0000
0000
,
0000
0000
1001
0000
0000
0011
0000
0000
0000
0000
0000
0011
0000
1100
0000
0000
0011
0000
0000
1100
0000
0001
0010
0000
0000
0001
0010
0000
0000
0011
0000
0000
0000
0001
0010
0000
1100
0000
0010
0000
1000
0000
0100
0000
0011
0000
1000
0011
,
0100
0000
0100
1000
0000
0001
0010
0000
0000
1100
0000
0011
0000
0000
0000
1100
0000
0001
0000
0000
0011
0000
1100
0000
0000
0011
0000
0000
1100
0000
0011
0000
0000
0000
1100
0010
0001
0000
1000
0100
0000
0001
0000
0010
0000
1100
0000
0000
,
0011
0000
1000
0100
0001
0000
0000
0000
0200
0000
0011
0000
0000
0000
0000
0000
0000
0000
0000
0000
0000
0000
1000
0000
0000
0000
0002
0000
0000
0300
0000
0000
0000
0000
0000
0000
0000
0000
0000
0000
1000
0003
0000
0000
0000
0000
0000
0001
,
0000
0200
0000
0000
0000
0000
0000
0000
0000
0000
0000
0000
0000
2000
0000
0300
0000
0000
0000
0000
0000
0000
0000
0000
0000
0000
0010
0000
0000
0000
0000
0000
0000
0000
0000
0001
0000
0000
0100
0000
0002
0000
0000
3000
0000
0000
0000
0000
,
0000
0000
0010
0000
0000
0000
0000
0000
0000
0000
0000
0100
0000
0000
0000
0003
0000
0001
1000
0000
0000
0000
0002
0000
1000
0100
0000
0000
1100
0000
0000
0000
0000
0000
0000
0000
0000
1100
0000
0000
0000
0000
0000
0000
0000
0000
0010
0000
,
1100
0000
0000
0010
0000
0100
0000
1000
0000
0010
0000
1100
0000
0010
0000
0000
0000
1100
0000
0000
0010
0000
1100
0000
0010
0000
0000
0000
1100
0000
0010
0000
0000
1100
0000
0010
0000
0000
0000
1100
0000
0010
0000
0000
1100
0000
0010
0000
,
0000
1000
0100
0000
0010
0000
1100
0000
0010
0000
0003
0000
1100
0000
0011
0000
0000
1100
0000
0001
0010
0000
1000
0100
0000
0011
0000
1000
0000
0100
0000
0011
0000
0000
0000
0000
0000
0000
0000
0000
0000
0001
0000
0001
0000
0000
1100
0000
,
0001
0010
0000
0000
1100
0000
0011
0000
0000
1100
0000
0011
0000
0000
1000
0100
0000
0011
0000
1100
0000
0000
0011
0000
0000
1100
0000
0000
0011
0000
0000
0000
1100
0000
0011
0000
0000
0000
1000
0001
0000
0000
0000
0000
0000
0000
0001
0000
,
0010
0000
0000
1000
0100
0000
0011
0000
1100
0000
0000
0011
0000
1000
0100
0000
0000
0011
0000
1100
0000
0000
0001
0010
0000
1000
0100
0000
0001
0010
0000
0000
1100
0000
0011
0000
0000
1101
0000
0000
0000
0000
0000
1101
0000
0000
0000
0000
,
0000
1101
0000
0000
0000
0000
0101
0000
1000
0000
0000
0000
0101
0000
1000
0000
0011
0000
0000
1000
0000
0101
0000
0000
0000
0000
1000
0000
0011
0000
0000
0000
1101
0000
0000
0000
0000
0011
0000
0000
1000
0000
0000
0101
0000
1000
0000
0000
,
0011
0000
0000
1000
0000
0000
0001
0110
0000
1000
0000
0101
0000
0000
0000
1000
0000
0011
0000
0000
1000
0000
0101
0000
0000
0000
1000
0000
0111
0000
0000
0000
1000
0011
0000
0000
0000
1000
0000
0101
0000
0000
0000
1000
0000
0000
0001
0000
,
0000
0000
1101
0000
0000
0001
0010
0100
1000
0000
0000
0010
0000
0001
1000
0000
0001
0100
0000
0000
1000
0000
0011
0000
0000
1000
0000
0000
0010
0001
0000
1000
0000
0000
0011
0000
0000
0000
0000
0000
1001
0000
0010
0001
0000
1000
0000
0000
,
0000
1101
0000
0000
0000
0000
0010
0000
0001
0000
1000
0000
0101
1000
0000
0000
0000
0011
0100
1000
0000
0000
0000
0111
0000
0000
0000
0000
0101
0000
0000
0000
1000
0000
0001
0010
0000
0101
1000
0000
0000
0000
0000
0011
1000
0000
0000
0000
,
0101
0000
1000
0000
0000
0000
0011
0000
1000
0100
0001
1010
0000
0000
0000
0001
0010
1000
0100
0000
0000
0001
0000
0001
0000
1000
0100
0000
0011
0000
1100
0000
0011
0000
1000
0000
0100
0000
0111
0000
0000
0100
0000
0000
0000
0200
0000
0000
,
1000
0000
0000
0000
0002
0000
0000
0000
0000
0000
0000
0000
0000
0000
1000
0000
0003
0000
0002
0000
0000
0300
0000
0000
0000
0000
0100
2000
0003
0000
0000
0000
0000
0001
0000
0000
0000
0000
0100
3000
0000
0000
0000
2000
0000
0000
0000
0000
,
0000
0000
0000
0001
0100
0000
3000
0000
0000
0000
0200
0000
0000
0000
0000
0000
0000
0000
0000
0000
0000
0000
0000
1000
0000
0000
0000
0000
0002
0000
0000
0000
0000
0000
0000
0000
0000
0300
0000
0000
0000
0000
2100
0000
0000
0003
0000
0000
,
0000
0002
0000
0000
0000
0000
0000
0000
0000
0000
0000
0000
0000
3200
0000
0000
0000
0000
0003
0000
0000
0000
0000
0000
0000
0000
0000
0000
0000
0000
0000
0000
0000
0000
0000
0000
0000
0000
0000
0000
0000
0000
0000
0000
0000
0000
0000
0000
,
0000
0000
0000
0000
0000
0000
0000
0000
0000
0000
1000
0000
0300
0000
0000
0000
0000
0000
0100
0000
0000
0000
0000
0000
0001
0000
0000
0000
0000
0000
0000
0200
0000
2000
0000
0000
0000
0000
0000
0002
0000
0000
0000
0000
0000
0000
0300
0000
,
0000
3200
0000
0000
0000
0000
0000
0000
0000
0000
0003
1000
0000
0000
0000
0000
0000
0000
0001
0300
0000
0000
0000
0000
0010
0000
0000
1000
0000
0011
0000
0000
1100
0000
0011
0000
1000
0100
0000
0000
0011
0000
1100
0000
0001
0000
0010
0000
,
1100
0000
0001
0000
0010
1000
0100
0001
0000
0010
0000
1100
0000
0001
0000
0000
0000
1100
0000
0000
0001
0000
0001
0000
0000
1100
0000
0001
0010
0000
0000
1100
0000
0011
0000
0000
0000
1100
0000
0011
1100
0000
0000
0000
0011
0000
1000
0000
,
0100
0000
0011
0000
1000
0000
0000
0000
0000
0000
0000
0000
1000
0001
0000
0000
0000
0000
1001
0100
0000
0011
0000
1000
0100
0000
0000
0000
0000
1101
0000
0000
0011
0000
1100
0000
0000
0000
0011
0000
1100
0000
0000
0000
0011
0000
1100
0000
,
0000
0001
0010
1000
0100
0000
0000
0001
0000
1000
0000
0000
0001
0000
0000
0000
1000
0000
0000
0001
0000
0000
0000
0000
0000
1101
0000
0000
0000
0000
1001
0000
0000
0000
0000
0001
1100
0000
0000
0011
0000
0000
0000
1100
0000
0011
0000
1100
,
0000
0011
0000
1000
0000
0101
0000
1010
0100
0000
0011
0000
1100
0000
0001
0010
1100
0000
0000
0000
0001
0000
0000
0000
0000
0000
0200
0000
0000
0000
0000
0000
0000
0000
1000
0000
0000
0002
0000
0000
0000
0300
0000
0000
0000
0000
0000
0000
,
0000
0000
0000
0200
0000
0000
2000
0000
0000
0000
0003
0000
0000
0000
0000
0000
0000
0000
0000
0000
0000
0000
0000
0000
0000
0000
0000
0000
0000
0000
3000
0000
0000
0000
0300
0000
0000
0202
0000
0000
0000
0000
0000
0000
0000
0000
0000
0000
,
0000
0000
0000
0000
0000
0000
0303
0000
0000
0000
0000
0220
0000
0000
0000
0000
0000
0000
0000
0000
0000
0000
0000
0000
0000
0000
0000
0000
0000
0000
0000
0000
0000
0000
0000
0000
0000
0000
0000
0000
0000
0300
0000
0000
0000
0000
0000
0000
,
2000
0000
0000
0000
0000
0000
0000
0000
0000
0000
0000
0000
0000
0000
0000
0000
0000
0000
0000
0000
0000
0000
0000
3002
0030
0000
0000
0000
0000
0000
0000
0000
0000
0000
0000
0000
0100
0000
0200
0000
0000
0000
0000
0000
0000
0000
0000
0000
,
0000
0000
0000
0000
0000
0000
0000
0000
0000
0000
0000
2000
0000
0000
0000
0000
,
0000
0000
0000
0000
0000
0000
0000
0000
0000
0000
0000
0000
0000
0000
0000
0000
0000
0000
0000
0000
0000
0000
0000
0300
0000
3003
0000
0000
0000
0002
0000
0220
0000
0000
0000
0000
0000
0000
0000
0000
0000
0000
0000
0000
0000
0000
0000
0000
,
0000
0000
0000
0000
0000
0000
0000
0000
0000
0000
0000
0000
0000
0000
0000
0000
0000
0300
0000
0000
0000
0003
0000
0000
0000
0000
0000
0000
0000
0000
0000
0000
0000
0000
0000
0000
0000
0000
0000
0000
0000
1030
0000
0000
0000
0000
0000
0000
,
0000
0000
0000
0000
0000
0000
0000
0000
0000
0000
0000
0010
0000
0000
0000
0000
0000
0000
0000
0000
0000
0000
0000
0000
0000
0000
0000
0000
0000
0000
0000
0000
0000
0000
0000
0000
0100
1100
0000
0000
0000
0010
0000
0000
0000
0000
0000
0000
,
0010
2200
0000
0000
0000
0000
0000
0000
0000
0000
0000
0000
0000
0000
0000
0000
0000
3300
0000
0000
0000
1100
0010
1000
,
0100
0000
0010
0100
1000
0000
0000
0010
0000
0100
0000
1000
0011
0000
0000
0000
1100
0000
0011
0000
0100
1000
0000
0000
0001
0001
0000
0000
1100
0000
0000
0001
0000
1100
0000
0000
0001
1010
0100
0000
0000
0011
0000
1000
0000
0100
0000
0010
,
0001
1000
0100
0000
0001
0000
0000
0000
1100
0000
0000
0011
0000
0000
0000
1100
0000
0001
0000
0000
0000
1101
0000
0000
0011
0000
1100
0000
0000
0002
0010
0000
1100
0000
0000
0000
0000
0000
0000
0000
0010
0000
0000
0000
1103
0000
0000
0000
,
0011
0000
1100
0000
0000
0011
0000
0100
1000
0000
0000
0011
0000
0000
0000
1100
0000
0011
0000
0000
1100
0000
0001
0000
0010
0000
1100
0000
0000
0001
0010
0000
0000
1100
0000
0001
0010
0000
0000
1100
0000
0000
0011
0000
1000
0100
0000
0000
,
0011
0000
0000
0000
1100
0000
0000
0011
0000
0100
0000
0000
0000
0001
0000
0000
0000
0000
0000
0000
1001
0000
1000
0000
0000
0101
0000
0000
0000
0001
1000
0100
0000
0001
0010
0000
1100
0000
0001
0000
0010
0000
1100
0000
0000
0011
0000
1000
,
0000
0000
0000
0011
0000
0000
1000
0100
0000
0000
0011
0000
1000
0000
0100
0000
0000
0011
0000
1000
0100
0000
0000
0011
0000
1100
0000
0000
0011
0000
0000
1000
0100
0000
0011
0000
0000
0000
1100
0000
0001
0000
0000
0000
1000
0001
0000
0000
,
0000
0000
1100
0001
0000
0000
0000
0000
0001
0000
0000
1000
0000
0000
0000
1101
0000
0000
0000
0000
0011
0000
0000
1000
0000
0001
0100
0000
1000
0000
0000
0001
0000
0000
1000
0000
0000
0000
0101
0000
1000
0000
0000
0001
0010
0000
0000
1000
,
0000
0101
0000
0000
0000
0000
1000
0000
0001
0000
0000
0000
1101
0000
0000
0000
0000
0011
0000
0000
0000
1000
0000
0000
1101
0000
0000
0000
0001
0000
0010
0000
1000
0000
0000
0101
0000
0000
0000
1000
0001
0000
0000
0000
0100
0000
0011
0000
,
0000
1100
0000
0011
0000
0000
1000
0100
0000
0011
0000
1000
0000
0100
0000
0011
0000
0000
0000
1101
0000
0000
0010
0000
0000
1000
0100
0000
0011
0000
0000
0000
1100
0000
0000
0001
0000
1000
0000
0001
0000
0000
0000
0000
0000
0000
1101
0000
,
0011
0000
0000
1100
0000
0001
0010
0000
0000
1100
0000
0011
0000
0000
0000
1100
0000
0001
0010
0000
1100
0000
0000
0000
0011
0000
1000
0000
0100
0001
0010
0000
0000
1000
0000
0001
0000
0000
0000
0001
0000
1000
0100
0000
0000
0000
0000
1101
,
0000
0000
0000
0011
0000
1000
0000
0000
0000
0011
0000
0100
1000
0000
0001
0010
0000
0000
0000
0000
0111
0000
0000
0000
0000
0101
0010
0000
0000
0000
0011
0100
0000
0000
0000
0000
0111
0000
0000
0000
0101
0010
0000
0000
0000
0101
0010
0000
,
0000
0000
0000
0111
0000
0000
0000
0101
0010
0000
0000
0000
0101
0000
0010
0000
0000
0111
0000
0000
0000
0000
0000
0111
0000
0000
0000
0001
0000
0110
0000
0000
1101
0000
0000
0000
1100
0001
0000
0000
0000
0000
1101
0000
0000
0000
0000
1101
,
0000
0000
0000
0000
0000
1101
0000
0000
0000
0000
1101
0000
0000
0000
0000
0000
1101
0000
0000
0000
0000
1101
0000
0000
0000
0000
0000
1101
0000
0000
0000
0000
0101
0000
0000
0000
0000
1000
0000
0000
0000
1100
0000
0000
0010
0000
0100
1000
,
0000
0010
0000
0000
0000
0000
0000
0000
0000
0000
1010
0000
0000
0000
0000
0010
0000
0000
0000
0000
0000
0000
0010
1000
0000
0000
0000
1010
0000
0000
0100
0000
0010
0000
1000
0000
0100
0000
0010
0000
1100
0000
0000
0010
0000
1100
0000
0000
,
0000
0010
0000
1100
0000
0000
0010
0000
0000
0000
1100
0000
0010
0000
0000
1100
0000
0010
0000
0000
0000
0000
0000
1000
0000
0000
0001
0000
1000
0000
0000
0001
0000
1000
0000
0000
0000
0000
0000
0000
1001
0000
0011
0000
0000
1000
0000
0001
,
0010
0000
0000
1000
0000
0011
0000
0000
1000
0000
0000
0011
0000
0000
1000
0000
0000
0000
0011
1000
0000
0000
0000
0011
0000
1000
0000
0000
0011
0000
0000
1000
0000
0000
0011
0000
0000
0000
1000
0001
0010
0000
0000
1000
0000
0000
0000
0011
,
0000
1100
0000
0000
0101
0000
1000
0000
0000
0000
0011
0000
0000
0000
0000
0101
0000
1000
0000
0000
0011
0000
0000
0000
0000
0000
0101
0000
0000
0000
0000
0000
0000
1001
0000
0000
1101
0000
0000
0000
0000
0000
0000
0000
0000
1001
0000
0000
,
0000
0000
0000
0000
0000
0000
1101
0000
0000
0000
0000
0000
0000
0000
0000
0000
0000
0000
0000
0000
0000
0000
0000
0000
1100
0000
0001
0000
0000
0000
0001
0100
0000
0000
0000
0001
0000
1100
0000
0011
0100
1000
0000
0000
0011
0000
1100
0000
,
0000
0001
0010
0000
0100
1000
0001
0000
0010
0000
0100
0001
0010
0000
0000
0000
0000
0101
0000
0010
0000
0000
1000
0001
0100
0000
0000
0000
0000
0000
0000
0001
0000
0000
0000
0001
0000
0100
1000
0000
0101
0000
0000
0000
0000
0000
1101
0000
,
0000
0000
0000
0000
0000
0000
1101
0000
0000
0000
0101
0000
1000
0000
0000
0000
0000
0000
0000
0000
0000
0000
0000
0000
0011
0000
1000
0000
0000
0000
0000
0000
0000
0000
1100
0000
0001
0000
0000
0000
0000
0000
0000
1001
0000
0100
0000
0000
,
0000
0001
1100
0000
0000
0010
0000
0000
0000
0000
0000
0000
0000
0000
1100
0000
0001
0000
0000
0000
0001
0000
1100
0000
0000
0011
0000
1100
0000
0000
0001
0010
0000
1100
0000
0011
0000
0000
0000
1100
0000
0011
0000
0000
1100
0000
0001
0000
,
0010
0000
1101
0000
0000
0000
0000
0000
1100
0000
0001
0000
0000
0010
0001
1000
0100
0000
0000
0000
0000
0000
1100
0000
0000
0000
0000
0000
0000
1100
0000
0000
0000
0000
1100
0000
0000
0000
0000
0000
0000
0000
0000
0000
0000
0000
1000
0000
,
0101
0000
0000
0000
0000
0000
0000
0000
0000
0000
0101
1000
0000
0000
1101
0000
0000
0000
0000
0000
0000
0000
0000
0000
1100
0000
0000
0000
0011
0000
0000
1100
0000
0000
0000
0000
0000
0000
0000
0000
1100
0000
0001
0000
0010
0000
0000
0000
,
0000
1000
0000
0000
0001
0000
1000
0000
0001
0000
0000
0000
0010
0001
1000
0100
0000
0011
0000
1100
0000
0000
0000
0011
0000
1100
0000
0001
0010
0000
1100
0000
0000
0000
0011
0000
1100
0000
0000
0000
0001
0000
0000
0000
0000
1101
0000
0000
,
0000
0000
0000
0000
0000
0000
0000
0000
0000
0100
0000
0000
0000
0000
0000
0000
0000
0000
0000
1000
0000
0000
0000
0000
0000
0000
0000
0000
0000
0000
0100
0000
0000
0000
0000
0000
0000
0000
0000
0000
0000
0200
0000
0000
0000
0000
0000
0000
,
0000
0000
0000
0000
0000
0000
0000
0000
0000
0000
0000
0000
0000
0000
0000
0000
0000
0000
0000
0000
0000
0000
0000
0000
0000
0000
0000
0000
0000
2000
0000
0000
0000
0000
0000
0000
0000
0000
0000
0000
0000
0000
0000
0000
0000
0000
0000
0000
,
0000
0000
0002
0000
0000
3000
0000
0300
0000
0000
0000
0000
0000
0000
0000
0000
0000
0000
0000
0020
0000
0000
0003
0000
0000
0000
0000
0000
0000
0000
0000
0000
0000
0000
0000
0000
0000
0000
0000
0000
0000
0000
0000
0000
0000
0000
0000
0000
,
0000
0000
0000
0000
0000
0000
0000
0000
0000
0000
2000
0000
0000
0000
0000
0000
0000
0030
0000
0000
0000
0000
0000
0000
0000
0000
0000
0000
0000
0000
0000
0000
0000
0000
0000
0000
0000
0000
0000
0000
0000
0000
0000
0000
0000
0000
0000
0000
,
0000
0000
0000
0000
0000
0200
0000
0000
0000
0000
0000
0000
3000
0002
0000
0000
0000
0000
0000
0000
0000
0000
0000
0000
0000
0000
0000
0000
0000
0000
0000
0000
0000
0000
0000
0000
0000
0000
0000
0000
0000
0000
0300
0000
0000
2000
0000
0000
,
0000
0003
0000
0000
0000
0000
0000
0000
0000
0000
0000
0000
0000
0000
0000
0000
0000
0000
0000
0020
0000
0000
0000
0000
3000
0000
0000
0000
0000
0000
0000
0000
0000
0000
0000
0000
0000
0000
0000
0000
0000
0000
0000
0000
0000
0000
0000
0000
,
0000
0030
0200
0000
0000
0000
0000
0000
0000
0000
0000
0000
0000
0000
0000
0000
1000
0000
0000
0000
0000
0000
0000
0000
0000
0000
0000
0000
0000
0000
0000
0000
0000
0000
0000
2000
0000
0000
0000
0000
0000
0000
0000
0000
0000
0000
0000
0000
,
0000
0000
0000
0000
0000
0000
0000
0000
3000
0000
0000
0000
0000
0300
0000
0000
0000
1100
0000
0001
0000
0010
0000
1000
0000
0100
0011
0000
1100
0000
0000
0000
0011
0000
1100
0000
0000
0000
0011
0000
0000
1100
0000
0000
0000
0011
0000
0002
,
0000
1000
0000
0000
0000
0000
0000
0200
0000
0000
0000
0000
0000
0000
0000
0000
0000
0000
0000
0003
0000
0000
2000
0000
0000
0000
0000
0000
0000
0000
0000
0000
0000
0000
0000
0000
0000
0002
0000
0000
0000
0000
3000
0000
0000
0300
0000
0000
,
0000
0000
0000
0000
0000
0000
0000
0000
0000
0000
0000
0000
0200
0000
0000
0003
0000
0000
0000
0000
0000
0000
0000
0000
0000
0000
0000
0000
0000
0000
0000
0000
0000
0000
0000
0000
0000
2000
0000
0000
0000
0000
0000
0000
0000
0000
0000
0000
,
0000
0000
0000
0000
0000
0000
0000
0000
0000
3000
0020
0300
0000
0000
0000
0000
0000
0000
0000
0000
0000
0000
0000
0000
0000
0000
0000
0200
0000
0000
0000
0000
0000
0000
0000
0030
0000
0000
0000
0000
0000
0000
0000
0000
0000
0300
0000
0000
,
0000
0000
0001
0000
0000
0100
0011
0000
0000
0000
0000
0000
0101
0000
0000
0000
0001
0000
1100
0000
0011
0000
1100
0000
0011
0000
1100
0000
0000
0011
0000
1100
0000
0000
0011
0000
0100
1000
0000
0011
0000
0100
1000
0000
0000
0011
0000
1000
,
0000
0100
0001
0000
0000
1000
0101
0000
0000
0000
0000
1101
0000
0000
0001
0010
0000
1100
0000
0001
0010
0000
0000
1100
0000
0011
0000
0000
1100
0000
0000
0000
0010
0000
1100
0000
0010
0000
0001
1000
0000
0000
0000
0001
0000
0000
0000
0000
,
1101
0000
0011
0000
0000
0000
1100
0000
0011
0000
0000
1100
0000
0001
0010
0000
1000
0100
0000
0011
0000
1000
0000
0101
0000
0010
0000
1000
0100
0000
0001
0000
0000
0000
1000
0000
0001
0000
0000
0000
0000
0001
0000
1100
0000
0001
0000
1100
,
0000
0000
0011
0000
1000
0100
0000
0000
0011
0000
1100
0000
0000
0000
0011
0000
0100
1000
0000
0011
0000
0100
0000
0000
0000
0011
0000
0000
1100
0000
0000
0011
0000
0000
1100
0000
0001
0010
0000
0000
1100
0000
0000
0011
0000
1100
0000
0001
,
0010
0000
0000
1100
0000
0001
0010
0000
0000
1100
0000
0000
0011
0000
1000
0000
0100
0000
0011
0000
0000
1000
0000
0000
0011
0000
1000
0100
0000
0001
0000
0000
0000
1001
0000
0000
0000
0000
0001
0000
1000
0100
0000
0000
0011
0000
1100
0000
,
0000
0011
0000
1000
0100
0000
0000
0011
0000
1100
0000
0000
0000
0011
0000
1000
0000
0100
0000
0011
0000
1000
0100
0000
0001
0000
0010
0000
1000
0000
0001
0010
0000
1000
0000
0000
0000
0011
0000
1000
0000
0000
0000
0001
0010
0000
1000
0000
,
0000
0000
0011
0000
0000
1000
0000
0000
0000
0011
0000
1000
0000
0000
0001
0000
0010
0000
1000
0000
0001
0000
0000
0000
0000
0111
0000
0000
0000
0000
0000
0000
0111
0000
0000
0000
0000
0000
0000
0111
0000
0000
0000
0000
0000
0111
0000
0000
,
0000
0000
0000
0000
0111
0000
0000
0000
0000
0000
0000
0011
0100
0000
0000
0000
0000
0000
0000
0000
0000
0001
0010
0100
0000
0000
0000
0000
0000
0000
0001
0010
0100
0000
0000
0000
0000
0000
0000
0000
0000
0111
0000
0000
0000
0000
0000
0000
,
0000
0000
0000
0111
0000
0000
0000
0000
0000
0000
0000
0000
0000
0111
0000
0000
0000
0000
0000
0000
0000
0000
0000
0111
0000
0000
0000
0000
0000
0000
0000
0000
0000
2022
0200
0000
0000
0000
0000
0000
0000
0000
0000
0000
0000
0000
0000
0000
,
0000
0000
0000
0000
0000
0000
0000
0000
0000
0000
0000
0000
3000
0000
0000
0000
0000
0000
0000
0000
0300
0000
0000
0000
0000
0000
0000
0100
0000
0000
0000
0000
0000
0000
0000
0000
0000
0000
0000
0000
0000
0000
0000
0000
0000
0100
0000
0000
0000
0033
0000
0000
0000
0000
0000
0000
0000
0000
0000
0000
0000
0000
0000
0000
0000
0000
0000
0000
0000
0000
0000
0000
0000
0000
0000
0000
0000
0000
0000
0000
0000
0000
0000
0000
0000
0000
0000
0000
0000
0000
0000
0000
0000
0000
0000
0000
0000
0000
0000
0000
0000
0000
0000
0000
0000
0000
0000
0000
0000
0000
0000
0000
0000
0000
0000
0000
0000
0000
0000
0000
0000
0000
0000
0000
0000
0000
0000
0000
0000
0000
0000
0000
0000
0000
0000
0000
0000
0000
0000
0000
0000
0000
0000
0000
0000
0000
0000
0000
0000
0000
0000
0000
0000
0000
0000
0000
0000
0000
0000
0000
0000
0000
0000
0000
0000
0000
0000
0000
0000
0000
0000
0000
0000
0000
0000
0000
0000
0000
0000
0000
0000
0000
0000
0000
0000
0000
0000
0000
0000
0000
0000
0000
;

//---------------dance-single - beginner----------------
#NOTES:
     dance-single:
     beginner:
     Beginner:
     10:
     0.764,1.000,0.877,0.250,1.000,823.000,172.000,49.000,0.000,10.000:
0000
0000
0000
0000
0000
0000
0000
0000
0000
0000
0000
0000
0000
0000
2200
0000
0000
0000
0000
0000
0000
0000
3000
0300
0000
0000
0000
0000
0000
0000
0000
0101
,
0000
0000
0000
0000
0000
0100
0001
0000
0000
0000
0000
0202
0000
0000
0000
0000
0000
0000
0000
0000
0003
0000
0000
0000
2000
0000
0000
0000
0000
0000
0000
3000
,
0001
0000
0000
0000
0000
0000
0000
1000
0000
0000
0000
0000
0000
0002
0000
0000
0000
0000
0000
0000
0000
0000
2000
0003
0000
0000
0000
0000
0000
0001
3000
0000
,
0000
0000
0000
2000
0000
0000
0000
0000
0002
0000
0000
3000
0000
0000
0000
1003
0000
0300
0000
0000
0000
0000
0010
0000
0000
0000
0000
0000
0000
1000
0000
0000
,
0000
0000
0000
0000
0100
0000
0000
0000
0000
0000
0000
0100
0000
0000
0000
0000
0000
0000
0000
0010
0000
0000
0000
0000
0000
1000
0000
0000
0000
0000
0000
0001
,
0000
0000
0000
0000
0000
0000
1000
0000
0000
0000
0000
0000
0000
0100
0000
0000
0000
0000
0000
0000
1000
0000
0000
0000
0000
0000
0010
0000
0000
0000
0000
0000
,
0100
0000
0000
0000
0000
0000
0000
0000
0010
0000
0000
0000
0000
0000
1000
0000
0000
0000
0000
0000
0000
0010
0000
0000
0000
0000
0000
0000
1000
0000
0000
0000
,
0000
0000
0001
0000
0000
0000
0000
0000
0010
0000
0000
0100
0000
0000
1000
0000
0000
0001
0000
0000
0010
0000
0000
0100
0000
0000
1000
0000
0000
0010
0000
0100
,
0000
0000
0000
0000
0010
0000
0000
0100
0000
0000
1010
0000
0100
0000
0000
0000
1000
0000
0000
0100
0000
0000
0000
0010
0000
0000
0100
0000
0000
0000
0100
0000
,
0000
0110
0000
0000
0000
1000
0000
0010
0000
1000
0000
0000
0100
0000
0000
1010
0000
1000
0000
0100
0000
0000
0000
0000
0000
0000
0001
0000
0000
0000
0010
0000
,
0000
0100
0000
0000
0000
0001
0000
0000
0000
0110
0000
0000
0001
0000
0000
0100
0000
0000
0001
0000
0000
0100
0000
0000
0000
0000
0001
0000
0000
0101
0000
0000
,
0000
0010
0000
0000
0100
0000
0000
0010
0000
1000
0000
0100
0000
0000
0000
1000
0000
0000
0100
0000
0000
0000
1010
0000
0000
0000
0100
0000
0000
0000
0010
0000
,
0000
0000
0001
0000
0000
0000
0010
0000
0000
1000
0100
0000
0000
0000
0010
0000
1000
0000
0100
0000
0000
0000
0010
0000
0000
1000
0000
0000
0001
0000
0000
0000
,
0000
0010
0000
0010
0000
0000
0000
0100
0000
0000
0010
0000
0000
0100
0000
0000
0000
0010
0000
0000
0110
0000
0000
0000
0110
0000
0000
0110
0000
0000
0110
0000
,
0000
0000
0110
0000
0000
0110
0000
0000
0000
0010
0000
0000
1010
0000
0000
1010
0000
0000
1010
0000
0000
0000
1010
0000
0000
1010
0000
0000
0000
1010
0000
0000
,
1010
0000
0000
1100
0000
0000
0000
0001
0000
0000
1000
0000
0000
0001
0000
0000
0010
0000
0000
0110
0000
0000
1000
0000
0000
0001
0000
0000
0000
0010
0000
0000
,
0000
0100
0000
0000
1000
0000
0000
0001
0000
0000
0000
0010
0000
0100
0000
0000
0000
1000
0000
0001
0000
0000
0010
0000
0000
0000
1000
0000
0000
0010
0000
0000
,
0000
0100
0000
0000
1000
0000
0000
0100
0000
0000
0000
0010
0000
0000
0100
0000
0000
0001
0000
0000
0000
0001
0000
0000
0010
0000
0000
0000
0100
0000
0000
1000
,
0000
0000
0001
0000
0000
0010
0000
0000
0000
0100
0000
1000
0000
0000
0000
0010
0000
0000
0100
0000
0000
0000
1000
0000
0000
0001
0000
0000
0000
1000
0000
0000
,
0010
0000
0000
0000
0100
0000
0000
1000
0000
0001
0000
0000
0000
0100
0000
0000
0000
1000
0000
0000
0001
0000
0000
1000
0000
0000
0000
0001
0000
0000
1000
0000
,
0000
0000
0100
0000
0000
0000
0000
0010
1000
0000
0000
0000
0000
0000
0000
0000
0100
0000
0000
0010
0000
0000
0000
0100
0000
0000
1000
0000
0000
0001
0000
0000
,
0010
0000
0000
0000
0100
0000
0000
0000
0100
0000
0000
0000
1000
0000
0000
0000
0010
0000
0000
0000
0010
0000
0000
0100
0000
0000
0000
0010
0000
0000
0100
0000
,
0000
1000
0000
0000
0010
0000
0000
0010
1000
0000
0000
0100
0000
0000
1000
0000
0000
0000
0000
0010
1000
0000
0000
0000
0100
0000
0000
0000
0001
0000
0000
1000
,
0000
0000
0001
0000
0000
0000
1000
0000
0000
0100
0000
0000
0000
0000
0000
0010
0000
0000
0100
0000
0000
0000
0010
0000
0000
1000
0000
0000
0100
0000
0000
0000
,
0000
0100
0000
0100
0000
0000
0100
0000
0000
0100
0000
0000
0100
0000
0000
0100
0000
0000
0100
0000
0000
0000
0100
0000
0000
0000
1000
0000
0000
0000
0001
0000
,
0000
1000
0000
0000
0000
0010
0000
0000
0000
0000
0000
0100
0000
0000
0100
0000
0000
0000
0100
0000
0000
0100
0000
0000
0100
0000
0000
1000
0000
0000
0000
0000
,
0000
0000
0001
0000
0000
1000
0000
0000
0000
0000
0000
0000
0000
0000
0000
0000
0000
0000
0000
0000
0000
0000
0000
0000
0000
0000
0000
0000
0000
0000
0000
0000
,
0000
0000
0000
0000
1100
0000
0000
0000
1100
0000
0000
1100
0000
1100
0000
0000
,
0000
0000
0110
0000
0000
0000
0000
0000
0000
0000
0110
0000
0000
0000
0000
0110
0000
0000
0000
0110
0000
0000
0000
0000
0000
0000
0000
0000
0101
0000
0000
0000
,
0000
0000
0000
0000
0000
0000
0101
0000
0000
0000
0000
0000
0101
0000
0000
0101
0000
0000
0101
0000
0000
0000
0000
0000
0000
0000
0110
0000
0000
0000
0000
0000
,
0000
0110
0000
0000
0000
0000
0000
0000
0000
0000
0000
0000
0000
0000
0000
0000
0000
0000
0000
0000
0000
1010
0000
0000
0000
0000
0000
0000
1010
0000
0000
0000
,
0000
0000
0000
1100
0000
1100
0000
0000
0000
0000
0000
0000
0000
0000
0101
0000
0001
0000
0000
0000
0000
0000
0000
1000
0000
0000
0000
0000
0000
0100
0000
0000
,
0000
1000
0000
0000
0000
0100
0000
0000
0000
0000
0000
0000
1000
0000
0000
0000
0000
0000
0000
0100
0000
0000
1000
0000
0000
0100
0000
0000
1000
0000
0000
0100
,
0000
0000
1000
0000
0000
0100
0000
0000
0000
2000
0000
0000
0000
0000
0000
0000
0000
0000
0000
0000
0000
0000
0000
0000
0000
0000
0000
0000
0000
0000
0000
3000
,
0000
0000
0001
0000
0000
0000
0000
0000
1000
0000
0000
0000
0000
0000
0000
0100
0000
0000
0000
1000
0000
0000
0010
0000
0000
0000
0000
0000
1000
0000
0000
0000
,
0000
0000
0000
0010
0000
0000
0000
0000
0000
0000
1000
0000
0000
0100
0000
0000
0000
1000
0000
0000
0000
0000
0000
0100
0000
0000
0000
0000
0000
1000
0000
0000
,
0001
0000
0000
0000
0000
1000
0000
0000
0000
0100
0000
0000
0000
0000
0010
0000
0000
0000
1000
0000
0000
0000
0200
0000
0000
0000
0000
0000
0000
0000
0000
0000
,
0000
0000
0000
0000
0000
0000
0000
0000
0000
0000
0000
0300
0000
0000
0000
1000
0000
0000
0000
0000
0000
0000
0001
0000
0000
0000
0000
1000
0000
0000
0000
0100
,
0000
0000
0000
0000
0000
0000
0000
0010
0000
0000
0000
0000
0000
0000
0000
1000
0000
0000
0000
0000
0000
0010
0000
0000
0000
1000
0000
0000
0000
0010
0000
0000
,
0000
0000
0000
0000
0000
0100
0000
0000
0000
0000
0000
0000
0000
1000
0000
0000
0000
0000
0001
0000
0000
0000
1000
0000
0000
0000
0000
0000
0000
0100
0000
0000
,
0000
2000
0000
0000
0000
0000
0000
0000
0000
0000
0000
0000
0000
0000
0000
0000
0000
0000
0000
3000
0000
0002
0000
0000
0000
0000
0000
0000
0000
0000
0000
0203
,
0000
0000
0000
0000
0000
1300
0000
0000
0000
0000
0010
0000
0000
0000
1000
0000
,
0010
0000
0000
0000
0000
0000
0100
0000
0000
0000
0000
0000
0000
0000
0000
0000
0000
0000
0000
0000
0100
0000
0000
0000
0100
0000
0000
0100
0000
0000
0000
1000
,
0000
0000
0001
0000
0000
0000
0000
0000
0000
1000
0000
0000
0000
0000
0000
0000
0010
0000
0000
0000
0000
0000
0000
0000
0000
0000
0000
0000
0000
0000
0000
0000
,
0000
0000
0010
0000
1000
0000
0000
0200
0000
0000
0000
0000
0000
0000
0000
0000
,
0000
0000
0000
0000
0000
0000
0000
2000
0000
0300
0000
0000
0000
0000
0000
0000
0000
0000
0000
0000
0002
0000
0000
3000
0000
0000
0000
0000
0000
0000
0000
0000
,
0000
0020
0003
0000
0000
0000
0000
0000
0000
0000
0000
0000
0000
0000
0000
0000
0000
0000
0000
0000
0000
0000
0000
0000
0000
0000
0000
0000
0000
0000
2000
0000
,
0030
0000
0000
0000
0000
0000
0000
0000
0000
0000
0000
0000
0000
0000
0000
0000
0000
0000
0000
0000
0000
0000
0000
0000
0000
0200
0000
0000
3000
0000
0000
0000
,
0000
0002
0000
0000
0000
0000
0000
0000
0000
0000
0000
0000
0000
0000
0000
0000
0000
0000
0000
0000
2000
0003
0000
0300
0000
0000
0000
0000
0000
0000
0000
0000
,
0000
0000
0020
0000
0000
3000
0000
0000
0000
0000
0000
0000
0000
0000
0000
0000
2000
0000
0030
0000
0000
0000
0000
0000
0000
0000
0000
0000
0000
0000
0000
0000
,
0000
0000
0000
0000
0000
0000
0000
0200
0000
0000
0000
0000
3000
0000
0002
0000
0000
0300
0000
0000
0000
0000
0000
0000
0000
0000
0000
0000
0000
0000
0003
0000
,
0000
0000
0000
0000
0000
0000
0000
0000
0000
0000
0000
0000
0001
0000
0000
0000
0000
0000
1000
0000
0000
0000
0000
0000
0000
0000
0000
0000
0000
0000
1000
0000
0001
0000
0000
0000
0000
0000
0000
0100
0000
0000
0010
0000
0001
0000
0000
0000
1000
0000
0000
0000
0000
0000
0000
0000
0000
0110
0000
0000
0000
0000
0000
0000
0000
0000
0000
0000
0000
0110
0000
0000
0000
0000
0000
0000
0000
0000
0000
0000
0000
0000
0000
0000
0000
0000
0000
0000
0000
0000
0000
0000
0000
0000
0000
0000
0000
0000
0000
0000
0000
0000
0000
0000
0000
0000
0000
0000
0000
0000
0000
0000
0000
0000
0000
0000
0000
0000
0000
0000
0000
0000
0000
0000
0000
0000
0000
0000
0000
0000
0000
0000
0000
0000
0000
0000
0000
0000
0000
0000
0000
0000
0000
0000
0000
0000
0000
0000
0000
0000
0000
0000
0000
0000
0000
0000
0000
0000
0000
0000
0000
0000
0000
0000
0000
0000
0000
0000
0000
0000
0000
0000
0000
0000
0000
0000
0000
0000
0000
0000
0000
0000
0000
0000
0000
0000
0000
0000
0000
0000
0000
0000
,
0000
0000
0000
0000
0000
0000
0000
0000
0000
0000
0000
0000
0000
0000
0000
0000
0000
0000
0100
0000
0000
0000
0000
0000
0000
0000
0000
0000
0000
0000
0000
0000
0001
0000
0000
0000
0000
0000
0000
0000
0000
0000
0000
0000
0000
0000
0000
0000
0000
0000
0000
0000
0000
0000
0000
0000
0000
0000
0000
0000
0000
0000
0000
0000
0000
0000
0010
0000
0001
0000
0000
0000
0100
0000
0000
0000
0000
0000
0000
0000
0000
0000
0000
0000
0000
0000
0000
0000
0000
0000
0000
0000
0000
0000
0000
0000
0000
0000
0000
0000
0000
0000
1010
0000
0001
0100
0000
0000
0000
0000
0000
0000
0000
0000
0000
0000
0000
0000
0000
0000
0000
0000
0000
0000
0000
0000
0000
0000
0000
0000
0000
0000
0000
0000
0000
0000
0000
0000
0000
0000
0000
0000
0000
0000
0100
0000
0000
0000
0001
0000
1010
0000
0000
0000
0000
0000
0000
0000
0000
0000
0000
0000
0000
0000
0000
0000
0000
0000
0000
0000
0000
0000
0000
0000
0000
0000
0000
0000
0000
0000
0000
0000
0000
0000
0000
0000
0000
0000
0000
0000
0000
0000
,
0000
0000
0000
0000
1000
0000
0000
0000
0000
0000
0000
0000
0000
0000
0000
0000
0000
0000
0000
0000
0000
0000
0000
0000
0000
0000
0000
0000
0000
0000
0000
0000
0000
0000
0000
0000
1000
0000
0000
0000
0000
0000
0000
0000
0000
0000
0000
0000
0000
0000
0000
0000
0000
0000
0000
0000
0000
0000
0000
0000
0000
0000
0000
0000
0000
0000
0000
0000
0000
0000
0000
0000
0000
0000
0000
0010
0000
0000
0100
0000
1000
0000
0000
0000
0000
0000
0000
0000
0000
0000
0000
0000
0000
0000
0000
0000
0000
0000
0000
0000
0000
0000
0000
0000
0000
0000
0000
0000
0000
0000
0000
0000
0000
0000
0000
0000
0000
0000
0000
0000
0100
0000
0000
0000
0000
0000
0000
0000
0000
0000
0000
0000
0000
0000
0000
0000
0000
0000
0000
0000
0000
0000
0000
0000
0000
0000
0000
0000
0000
0000
0000
0000
0000
0000
0000
0000
0000
0000
0000
0000
0000
0000
0000
0000
0010
0000
0000
0000
0000
0000
0000
0000
0000
0000
0000
0000
0000
0000
0000
0000
0000
0000
0000
0000
0000
0000
0000
0000
0000
0000
0000
0000
,
0000
0000
0000
0000
0000
0000
0000
0000
1100
0000
0000
0000
0000
0000
0000
1100
0000
0000
0000
0000
0000
0000
0000
1100
0000
0000
0000
0000
0000
0000
0110
0000
,
0000
0000
0000
0000
0110
0000
0000
0000
0000
0000
1000
0010
0000
0000
0000
0000
0000
0000
1010
0000
0000
0000
0000
0000
1010
0000
0000
0000
0000
0000
0000
0000
,
1010
0000
0000
0000
0000
0000
0001
0000
0000
0000
0000
0000
0000
1000
0000
0000
0000
0000
0000
0100
0000
0000
0000
0000
0000
0000
0000
0000
0100
0000
0000
0000
,
0000
0000
0000
0100
0000
0000
0000
0000
0100
0000
0000
0000
0000
0000
1000
0000
0000
0100
0000
0000
0000
0000
0000
0000
0000
1000
0000
0000
0000
0000
0000
0000
,
0000
0000
0010
0000
0000
0000
0000
1000
0000
0000
0010
0000
0000
0000
1000
0000
0000
0010
0000
0000
0000
0000
0000
0000
1000
0000
0000
0000
0000
0001
0000
0000
,
0000
0000
0000
0000
1000
0000
0001
0000
0000
1000
0000
0000
0000
0000
0000
0001
0000
0000
0000
0000
0000
0000
0000
0000
0100
0000
0000
0000
0000
0000
0000
0010
,
0000
0000
0100
0000
0000
0000
0010
0000
0000
0000
0000
0000
0000
0000
1000
0000
0000
0000
0000
0000
0001
0000
0000
0000
0000
0000
0010
0000
0000
0000
0000
0100
,
0000
0000
0000
0000
0000
0010
0000
0000
0000
0000
0100
0000
0000
0000
0000
0110
0000
0000
0110
0000
0010
0100
0000
0000
0110
0000
0010
0100
0000
0000
0000
0000
,
0000
0000
1000
0000
0000
0000
0000
0100
0000
0000
0000
0000
1000
0000
0000
0000
0000
0001
0000
0000
0000
0000
0000
0010
0000
0000
0000
0000
0000
0000
1000
0000
,
0000
0000
0000
0000
0010
0000
0000
0000
0000
0000
0100
0000
0000
0000
0010
0000
0000
0100
0000
0000
0000
0000
0000
0000
0000
0000
0100
0000
0000
0000
0000
0000
,
0000
0001
0000
0000
0000
0000
0010
0000
0000
0100
0000
0000
1000
0000
0000
0001
0000
0000
0000
0010
0000
0100
0000
0000
1000
0000
0000
0000
0010
0000
0000
1000
,
0000
0100
0000
0000
0000
0010
0000
1000
0000
0100
0000
0000
0010
0000
0000
0000
0000
0000
0000
0010
0000
0000
0000
1000
0000
0000
0010
0000
0000
1000
0000
0000
,
0000
0010
0000
0000
0000
0100
0000
0000
0000
0001
0000
0000
0001
0000
0000
0000
0010
0000
0000
0100
0000
0000
0000
0001
0000
0000
0000
0000
0000
0010
0000
0000
,
0000
0100
0000
0000
1000
0000
0000
0001
0000
0000
0000
0000
0010
0000
0000
1000
0000
0000
0010
0000
0000
1100
0000
0000
0000
0000
0000
0000
0000
0100
0000
0000
,
0000
1000
0000
0000
0001
0000
0000
0000
0000
1000
0000
0000
0000
0000
0000
0100
0000
0000
0000
1000
0000
0000
0000
0000
0000
0000
0001
0000
0000
0000
0000
0000
,
0000
0000
0000
0000
0001
0000
0000
0000
0000
0000
0000
0000
1000
0000
0000
0001
0000
0000
0000
0000
0000
0000
0000
0000
1000
0000
0000
0100
0000
0000
0000
0000
,
0000
0000
1000
0000
0000
0000
0100
0000
0000
0000
0000
0000
0100
0000
0000
0000
0000
0100
0000
0100
0000
0000
0100
0000
0000
0100
0000
0000
0000
0000
0000
0000
,
0000
0000
0000
0000
0000
0000
0000
0000
0000
0000
0000
0000
0000
0100
0000
0000
0000
0000
0000
0000
0000
0100
0000
0000
0000
0000
0000
0000
0100
0000
0000
0100
,
0000
0000
0000
0000
0000
0000
0000
1000
0000
0000
1000
0000
0000
0000
0000
0000
0000
0000
1000
0000
1000
0000
0000
0000
0000
0000
0000
0000
1000
0000
0000
0000
,
0000
0000
0000
0000
0101
0000
0100
0000
0000
0000
0000
0000
0000
0100
0000
0000
0000
0000
0000
0000
0100
0000
0000
0100
0000
0000
0000
0000
0000
0000
0100
0000
,
0000
0000
0000
0000
0000
0100
0000
0000
0000
0100
0000
0000
0000
0000
0000
0000
0000
0000
0000
0000
0000
0000
0000
0000
0000
1000
0000
0000
0000
0000
0000
0000
,
0000
0010
0000
0000
1000
0000
0000
0010
0000
0000
0000
0000
0100
0000
0000
0000
0000
0000
0000
0000
0100
0000
0000
0000
0000
0000
0000
0010
0000
0000
0000
0100
,
0000
0000
0000
0010
0000
0000
0000
0100
0000
0000
1000
0000
0000
0000
0000
0000
0001
0000
0000
0000
0000
0010
0000
0000
0000
0100
0000
0000
0000
1000
0000
0000
,
0001
0000
0000
0000
0010
0000
0000
0000
0000
0100
0000
0000
0000
0000
0000
0000
0110
0000
0000
0000
0000
0000
0000
0000
0000
0100
0000
0000
0000
0000
0000
0000
,
0000
0000
0000
0000
0000
0000
0000
1000
0000
0000
0000
0000
0000
0000
1000
0100
0000
0000
1100
0000
0000
0000
0100
0000
0000
0100
0000
0000
0000
0000
0000
0000
,
0000
0101
0000
0000
0000
0000
0000
0000
0000
0000
0110
0000
0000
0110
0000
0000
0000
0110
0000
0010
0100
0000
0000
0000
0000
0000
0000
1101
0000
0000
0000
0000
,
0000
0000
0000
0000
1101
0000
0000
1101
0000
0000
1101
0000
0000
0000
0101
0000
0100
1000
0000
0100
1001
0000
0000
1101
0000
0000
0101
1000
0000
0000
0000
0000
,
0001
0000
0000
0000
0000
0000
0000
0000
0000
0000
0000
0000
0000
2000
0000
0000
0000
0000
0000
0000
0000
0000
3100
0000
0000
0000
0000
0000
0000
0100
0001
0000
,
0000
1000
0000
0000
0000
0001
0000
0000
0000
0000
0000
0010
0000
0000
0000
0000
0000
0000
0000
0000
0000
0100
0000
0000
0000
0000
0000
0000
0000
0010
0000
0000
,
0100
0000
0000
0000
0010
0000
0000
0000
0000
0000
0000
0000
0000
0110
0000
0000
0000
0000
0110
0000
0000
0110
0000
0000
0110
0000
0000
0000
0110
0000
0000
0000
,
0000
0000
0000
0000
0001
0000
0000
0000
0000
0000
0000
0011
0000
0000
0000
0000
0000
0000
0101
0000
0000
0011
0000
0100
0001
0000
0000
0001
0010
0000
0101
0000
,
0000
0011
0000
0000
0001
0100
0000
0000
0001
0000
0000
0101
0000
0000
0001
0010
0000
0101
0000
0000
0001
0010
0000
0000
0000
0101
0000
0000
0011
0000
0000
0101
,
0000
0000
1000
0000
0000
0100
0000
0000
0000
0000
0000
0000
0000
0000
0000
0000
0100
0000
0000
0000
0000
0000
0000
0000
0000
0000
0000
0000
0000
0000
1010
0000
,
0000
0000
0000
0000
0000
0000
0000
0000
0000
0000
0000
0000
0000
0000
0000
0000
0000
0000
0000
0000
0000
0001
0100
0000
0202
0000
0000
0000
0000
0000
0000
0000
,
0000
0000
0000
0000
0000
0000
0000
0000
0000
0000
0000
0000
0000
0000
0000
0003
0000
0000
2000
0000
0300
0000
0000
0000
0000
0000
0000
0000
0000
0000
0000
0000
,
0000
0000
0000
0000
0000
0000
0000
0000
0000
0000
0000
0000
0002
0000
0000
3000
0000
0000
0000
0000
0000
0000
0000
0000
0000
0000
0000
0000
0200
0000
0003
0000
,
0000
0000
0000
0000
0000
2000
0300
0000
0000
0000
0000
0000
0000
0000
0000
0020
,
0000
0000
0000
3000
0000
0000
0000
0000
0000
0000
0000
0000
0000
0000
0000
0000
0000
0000
0000
0000
0000
0030
0000
0000
0000
0000
1100
0000
0000
0000
1100
0000
,
1100
0000
0000
1100
0000
0000
0100
0000
0000
0000
1100
0000
1100
0000
0000
0100
1000
0000
0000
0010
0000
0000
0110
0000
0000
0000
0110
0000
0011
0000
0000
0011
,
0000
0000
0011
0000
0000
0000
0101
0000
0000
0101
0000
0101
0000
0000
0101
0000
0000
0100
0001
0000
0000
1001
0000
0000
1001
0000
0000
1001
0000
0000
1001
0000
,
0000
1000
0001
0000
0000
1001
0000
0000
1001
0000
0000
1001
0000
0000
1001
0000
0000
0000
1001
0000
0000
1001
0000
0000
0000
1001
0000
0000
1001
0000
0000
0000
,
1001
0000
0000
1001
0000
0000
1001
0000
0000
1001
0000
0000
0000
1001
0000
0000
0110
0000
0000
0110
0000
0000
0110
0000
0000
0000
0110
0000
0000
0110
0000
0000
,
0110
0000
0000
0000
1010
0000
0000
1000
0000
0000
0100
0000
0000
0000
0100
0000
0000
0100
0000
0000
0010
0000
0000
0100
0000
0000
0010
0000
0000
0101
0000
0000
,
0000
0011
0000
0000
0101
0000
0000
0001
0010
0000
0101
0000
0000
0000
0001
0010
0000
0101
0000
0000
0011
0000
0000
0100
0000
0000
0000
1000
0000
0000
0100
0000
,
0000
0010
0000
1000
0100
0000
0000
0010
1000
0000
0000
1100
0000
0000
0010
0000
0000
0100
0000
0000
0010
0000
0000
0200
0000
0000
0000
2000
0000
0000
0000
0300
,
0000
0000
0000
0000
0000
0000
0000
0000
0000
0000
0000
0000
0000
0000
0000
0000
0000
0000
0000
0000
0000
3002
0000
0000
0000
0000
0000
0000
0000
0000
0200
0000
,
0000
0003
0000
0000
0000
0000
0000
2000
0000
0000
0000
0000
0300
0000
0000
0020
0000
3000
0000
0000
0000
0000
0000
0000
0000
0000
0000
0000
0000
0000
0000
0000
,
0000
0000
0000
0000
,
0000
0000
0000
2000
0030
0000
0000
0000
0000
0000
0000
0000
0000
0000
0002
3000
,
0000
0000
0200
0000
0003
0000
0000
0000
0000
0000
1000
0300
0000
0020
0000
0000
0000
0000
0000
0000
0000
0000
2000
0030
0000
0000
0000
0200
0000
3000
0000
0002
,
0000
0300
0000
0000
0000
0000
0000
0000
0000
0000
0000
0000
0000
0000
0000
0000
,
0000
0000
0000
0000
0000
0000
0000
0000
0000
0000
0000
0000
0000
0000
0000
0003
0000
0000
0000
0000
0000
0000
1100
0000
0000
0000
0000
0000
1100
0000
0000
1100
,
0000
0000
0000
0000
0000
0000
0000
0100
0000
0000
0000
0000
0000
0000
0000
0110
0000
0000
0000
0000
0000
0000
0110
0000
0000
0010
0100
0000
0000
0000
0000
0000
,
0000
0000
0000
0000
1000
0000
0000
0000
0000
0000
0000
0000
1001
0000
0000
0000
0000
1001
0000
0000
1001
0000
0000
0000
1001
0000
0000
0000
0000
0000
0000
0100
,
0000
0000
0000
0000
0010
0000
0000
0000
0000
0000
0000
0100
0000
0000
0010
0000
0000
0000
0000
0000
0000
0100
0000
0000
0000
0000
0000
0000
1000
0000
0000
0000
,
0000
0001
0000
0000
0000
0000
0000
0010
0000
0000
0100
0000
0000
0000
0000
0000
0000
0000
1000
0000
0000
0000
0000
0000
0000
0000
0000
0001
0000
0000
0000
0000
,
0000
1000
0000
0000
0000
0100
0000
0000
1000
0000
0000
0000
0000
0000
0000
0000
0010
0000
0000
0000
0000
0000
0000
0000
1000
0000
0000
0000
0000
0000
0000
0010
,
0000
0000
1000
0000
0000
0000
0000
0000
0000
0000
0100
0000
0000
0000
0000
0000
0000
1100
0000
0000
0000
0000
0000
0000
0000
0000
0000
0000
0000
0000
0000
0000
,
0101
0000
0000
0000
0000
0000
0000
0000
0000
0000
0000
0000
0000
0000
0000
0110
0000
0000
0000
0000
0000
0000
0010
0100
0000
0110
0000
0000
0000
0000
0000
0000
,
1010
0000
0000
0000
0000
0000
0000
0000
0000
1010
0000
0000
0000
0000
0000
1010
0000
0000
0000
1010
0000
0000
0000
0000
0000
0000
0000
1010
0000
0000
0000
0000
,
0000
0000
0000
0000
1010
0000
0000
0000
1010
0000
0000
1010
0000
0000
0000
1010
0000
0000
1010
0000
0000
1010
0000
0000
1010
0000
0000
0000
0000
0010
0000
0000
,
0100
0000
0000
0000
0010
0000
0000
0100
0000
0000
0010
0000
0000
0100
0000
0000
0000
0010
0000
0000
0000
0100
0000
0000
0010
0000
0000
1000
0000
0000
0000
0000
,
0000
0000
1000
0000
0000
0010
0000
0000
0000
0100
0000
0000
0010
0000
0000
0000
0100
0000
0000
0001
0000
0000
0000
0010
0000
0000
0000
0100
0000
0000
0000
0010
,
0000
0100
0000
0000
0001
0000
0000
0000
0010
0000
0000
0100
0000
0000
0000
0001
0000
0000
0000
0000
0000
0010
0000
0000
0000
0100
0000
0000
0000
0000
1000
0000
,
0000
0110
0000
0000
0000
0010
0000
0100
0000
0000
0000
0010
0000
0000
0000
0100
0000
0000
0010
0000
0000
0100
0000
0000
0000
0010
0000
0000
0100
0000
0000
0000
,
0000
0010
0000
0000
0100
0000
0000
0000
1000
0000
0000
0000
0000
0000
0000
0000
0000
0000
0000
0000
0000
0000
0000
0000
0000
0000
0000
0000
0000
0000
0000
0000
,
0000
0000
0000
1000
0000
0000
0000
0000
0000
0000
0000
0000
0000
0000
0000
0000
0000
0001
0000
0000
0000
0000
0000
0000
0000
0000
0000
0000
0000
0000
0000
0000
,
0100
0000
0000
0000
0000
0000
0000
0000
0000
0000
0000
0000
0000
0010
0000
0000
,
0000
0000
0000
0000
0000
0000
0000
1000
0000
0000
1000
0000
0000
0000
0000
0000
,
0000
0000
1000
0000
0000
0000
0000
0000
0000
0000
1000
0000
0000
0000
0000
0000
0000
1000
0000
0000
0000
0000
0000
0000
0000
0000
0000
0000
0000
0000
0000
0000
,
0000
0000
0000
1000
0000
0000
1000
0000
0000
0000
0000
0000
0000
0000
0000
0000
,
0000
0100
0000
0000
0000
0000
0100
0000
0000
0000
0000
0000
0000
0000
0000
0000
0000
0000
0000
0000
0000
0000
0000
0000
0000
0000
0010
0000
0000
0000
0000
0000
,
0010
0000
0000
0000
0000
0000
0000
0000
0000
0001
0000
0000
0000
0001
0000
0000
0001
0000
0000
0001
0000
0000
0000
0001
0000
0000
0001
0000
0000
0101
0000
0000
,
0100
0000
0000
0100
0000
0000
0000
0000
0000
0000
1000
0000
0000
0000
1000
0000
1000
0000
0000
0000
1000
0000
1010
0000
0000
1010
0000
0000
0000
0000
0100
0100
,
0000
0000
0010
0000
0000
0100
0000
0000
0010
0100
0000
0100
0000
0000
0010
0000
0000
0000
0100
0000
0000
0010
0000
0000
0100
0000
0000
0110
0000
0000
0110
0000
,
0000
0110
0000
0000
0110
0000
0000
0000
0000
0000
0000
0000
0100
0000
0000
0100
0000
0000
0100
0000
0000
0000
0000
0000
0000
0000
0001
0000
0000
0001
0000
0000
,
0001
0000
0000
0000
0000
0000
0000
0000
0000
1000
0000
0000
1000
0000
0000
1000
0000
0000
0000
0000
0000
0000
0000
0100
0000
0000
0100
0000
0000
0000
0100
0000
,
0000
0000
0000
0000
0000
0000
0010
0000
0010
0000
0000
0010
0000
0000
0000
0000
0000
0000
1000
0000
0000
0000
1000
0000
0000
1000
0000
0000
0000
0000
0000
0000
,
0001
0000
0000
0000
0001
0000
0000
0001
0000
0000
0000
0000
0000
0000
1000
0000
0000
1000
0000
0000
1000
0000
0000
0000
0000
0000
0000
0000
0000
0000
0001
0000
,
0001
0000
0000
0000
0000
0000
0000
0000
0000
0100
0000
0000
0100
0000
0000
0100
0000
0000
0000
0000
0000
0000
0000
0010
0000
0010
0000
0000
0000
0010
0000
0000
,
0000
0000
0000
0000
1000
0000
0000
1000
0000
0000
1000
0000
0000
0000
0000
0000
0000
0000
0001
0000
0000
0001
0000
0000
0000
0001
0000
0000
0000
0000
0000
0000
,
0000
0100
0000
0000
0100
0000
0000
0000
0000
0000
2002
0000
0000
0000
0000
0000
0000
0000
0000
0000
0000
0000
0000
0000
0000
0000
0000
0000
0000
0000
0000
0000
,
0000
0000
0000
0000
,
0000
0000
0000
0000
,
0000
0000
0000
0000
0000
0000
0000
0000
0000
0000
0000
0000
0000
0000
0000
0000
0000
0000
0000
0000
0000
0000
0000
0000
0000
0000
0000
0000
0000
3003
0000
0000
;

//---------------dance-single - omg----------------
#NOTES:
     dance-single:
     omg:
     Edit:
     55:
     1.000,1.000,1.000,0.133,1.000,5130.000,3129.000,26.000,0.000,1600.000:
0000
0000
0000
0000
1100
0000
1111
0000
0000
0000
1000
0001
0000
1111
0000
0111
1101
0000
1000
1001
0111
0000
0010
1000
1000
0000
1111
0111
0000
1000
1000
0000
1111
1101
0110
0001
1000
0000
0011
0100
0001
1000
0010
0000
0000
0000
0001
0000
1111
1101
0001
0011
0000
0000
0111
1001
0011
1000
0110
0101
0000
1010
1101
0000
,
1111
0110
1111
0000
0101
1111
0000
0011
0000
0100
0000
1000
0011
0000
0111
0000
1111
1000
0000
0011
0001
0111
0000
1000
0000
0000
0001
1000
0001
1100
0110
0000
1111
0011
0000
1100
1100
0011
0000
1001
0010
0000
1011
0110
0000
0000
1111
0000
1111
1000
0000
1100
1111
0001
0010
0000
1001
0000
1100
0111
0011
0000
1100
1100
,
1111
0101
0010
0000
0000
1111
1100
0000
1011
0001
0000
1100
0010
0000
0111
1111
1101
1000
0001
0000
0111
1100
0000
1000
0000
0001
0111
0000
0000
0000
1000
1111
1101
1111
0000
0000
1011
0000
1011
0101
0010
1001
0000
0010
0011
1100
0000
0000
1111
0010
0010
1001
1100
0000
0000
0000
0000
1000
0001
0000
1100
1101
0000
1011
,
1111
0000
1010
1111
0100
0000
1011
0010
0000
1111
1000
0000
0000
1011
0000
0000
1111
0000
0001
1110
0000
0000
0000
1000
0000
0111
0000
0000
1110
0001
0000
0001
1111
0000
1000
0001
0000
0011
1100
1100
1000
0001
0010
0011
0111
0000
1000
1100
1111
0010
0011
0000
0000
1100
1000
0100
0001
0001
0000
0011
0010
0000
1001
1100
,
1011
0000
0000
0111
0011
1000
0000
1000
0000
1111
0011
0000
1100
0000
0000
0011
1011
0011
1100
1101
0000
0000
0011
0000
0000
1000
1100
0000
0100
0011
0000
1011
1111
0000
1000
0011
0000
0011
1100
0000
1000
0000
0000
0000
0111
0000
0010
1100
1011
0000
1001
1110
0000
0011
0010
1000
0000
1100
0000
0001
0011
0000
0010
0000
,
1111
0101
0000
1000
1000
0011
0000
0111
0000
0001
1000
1000
1101
0110
0001
0001
1111
1000
0000
1100
1000
0100
0000
0011
0000
0011
1100
0000
1101
0010
0000
0000
1101
1100
0000
0001
0000
0010
1100
0000
1000
1101
0010
0000
0011
1011
0000
1000
1111
0000
0000
1011
0000
0000
1011
0000
0001
0111
0100
1000
1000
0001
0000
0111
,
1111
1100
0000
1001
0010
0000
0001
1001
1100
0110
0001
0000
1010
0011
0000
1101
1110
0002
0000
1000
0010
0000
0000
0000
1110
0000
1000
0000
0100
0000
0000
1000
1100
1010
0000
0110
0103
0000
0010
1000
1000
0011
0011
0100
0100
1100
0000
1000
0011
0001
0101
0000
0011
0110
1000
1100
1000
0000
0000
0111
0000
0000
0000
0000
,
1111
1011
0000
0000
1101
0000
0110
0111
0010
0000
0000
1101
1010
0000
0111
0000
1101
0000
0111
0010
1000
1100
0000
1111
0000
0001
1100
0011
0000
0000
1111
0000
1101
1100
0111
0000
0000
1011
0000
0111
1100
0001
1000
0000
0000
0101
0011
0010
1111
0000
0000
0000
0111
0000
0000
0001
1101
1000
0001
0111
0000
1000
1100
0000
,
1101
0001
0111
0011
0000
0000
1000
1000
1100
0111
0110
0000
1001
0000
1000
0000
1111
0001
0000
0011
0000
1100
1000
0000
0011
1011
0000
0100
1001
1000
0110
0101
1101
0001
0010
1000
0000
1111
0111
0000
0000
1000
0000
0001
0111
0000
0011
1000
1111
0000
0001
0111
0000
1100
1001
0000
1010
0000
0111
1101
0010
0000
0000
1000
,
1111
0000
0011
0000
0000
1101
0001
0000
1111
0001
0000
0000
0000
0111
0101
0000
1111
1001
0100
0000
0101
0011
1000
0100
0100
1000
1000
0111
0000
0001
0011
1000
1111
0000
1111
1000
0101
0000
0000
0000
0011
1101
0000
1100
0001
0000
0000
1000
1101
0000
0001
0011
0011
0000
1001
1100
0000
0001
0000
1011
0010
0011
1100
1000
,
1111
0000
1001
0000
0111
0010
0000
0000
1101
1000
0000
0001
0011
0000
0000
0000
1111
1111
1000
0000
0001
0000
0000
0011
0111
0000
1000
0000
0000
1101
0000
0011
1111
0001
0010
1000
0100
1000
0111
0000
0000
0000
0000
0001
0101
1111
0000
0000
1111
0000
0001
0110
0110
1000
0000
0000
0000
1000
0011
0111
0000
1111
0000
1001
,
1101
0010
0000
0000
1100
0001
0001
0000
1100
0111
0000
0000
0000
1001
0011
0000
1111
1000
0000
0001
1000
0000
0000
0111
0101
0011
1101
0000
1100
0000
0000
0000
1111
0000
0011
1011
0000
0000
1100
0001
0000
0111
0000
0000
1001
1000
0000
0000
1111
0100
0000
0000
1000
1111
0101
0000
0001
0010
0000
0000
0101
1101
1100
0000
,
1111
0000
0011
0111
0000
0100
1000
1000
0000
0000
0111
0011
0101
0000
0000
1000
1101
0111
0101
0000
0000
0001
0000
0000
1000
0100
0001
0011
0000
0000
1101
0001
1101
0000
0011
0000
1001
1100
0001
0000
0111
0000
1000
1001
0010
0000
0111
1100
1101
0011
0000
1000
1000
0111
0000
0101
1000
0000
1000
1000
0111
0100
0000
0000
,
1111
1000
0110
0100
1001
1000
0111
0000
0001
0010
0011
0111
0000
0100
0000
1000
1101
0000
0011
0101
0100
0000
1000
0000
0100
0111
0000
1001
0100
1000
0000
1101
1111
0000
0111
1000
0000
0001
0001
0010
0111
0000
0000
1100
0100
0000
0111
0000
1101
1011
0100
0000
0001
1111
0000
0100
0000
0000
1011
0000
0100
0101
0000
0001
,
1000
0111
1000
1111
0000
0000
0000
0001
0011
0000
0110
0000
1101
1100
0000
0011
1000
0100
0101
0000
1000
0000
0001
0000
0011
1100
0101
0100
0000
1000
0011
0011
1000
0100
1100
0011
0000
0000
1000
0000
0111
0101
0011
0000
1100
0000
0111
0000
1000
0101
1011
0000
0000
0101
0000
0000
0001
0010
1100
1101
0000
0100
0000
0011
,
1000
0111
0000
1101
1100
0000
0011
0000
0101
0001
0110
0000
1000
1111
0000
0100
1000
0001
1101
0010
0011
0000
0000
1100
0101
0000
1000
0001
0000
0011
0001
0000
1111
0000
0001
1000
0010
0000
0001
0001
0000
0110
0000
0011
1001
0100
0000
0011
2101
0000
0010
0000
0000
0111
0000
0011
0000
0100
0100
0111
0000
0000
0011
0000
,
3100
0000
0010
0011
0101
0011
0000
1000
0000
0100
0111
0000
0001
0000
0010
0000
1111
0000
1001
0000
0000
0111
0000
0111
0101
0100
1001
1000
0010
0000
0000
0000
1111
1000
0000
0011
0000
0000
0101
0000
0000
1101
1111
0000
0010
0101
0000
1100
1111
0000
1000
0001
0000
0111
0000
0011
0000
1100
0100
0010
0001
0000
0011
1000
,
1000
0000
0101
1100
0000
1101
0000
0000
0011
0000
0111
0100
1001
0010
1000
0000
1100
1101
0001
0000
0000
0000
0011
0000
0000
0000
1001
1101
0000
0100
0011
0001
1101
0100
1000
1000
0000
0000
1111
0000
0001
1010
0000
0000
0010
1000
0011
0101
1111
0000
0000
0000
1000
1001
0001
0000
1110
0001
1000
0110
1000
0000
0011
0001
,
1111
1101
0000
0000
1111
0000
0000
0011
0001
1000
0000
1111
0101
0000
1100
0001
1111
0000
0111
0000
0000
0011
0000
1001
1100
0101
1000
0011
0010
0101
1000
0000
1110
0000
1111
0000
0011
0001
0100
0000
0000
1000
0000
0000
0010
0100
1101
0000
1111
0000
1011
0000
0000
1111
0000
0000
0000
1001
0000
0111
0001
0000
1110
0000
,
1111
0000
0011
0000
0000
1101
0000
0010
0000
0000
1101
1111
0000
0000
1000
0000
1111
0011
0111
0000
1100
0000
0000
1111
0000
0111
1000
1100
0000
0000
1011
0000
1111
0000
0000
0000
1100
1001
0000
0111
0000
0000
1001
0000
1000
0001
0001
0001
1111
0110
0000
1000
0000
0000
0011
0000
0000
1100
0000
0000
0011
0000
0000
0010
,
1111
1000
0000
1111
0100
0110
0001
0000
1000
0000
0101
0011
0011
0100
0000
1000
1111
0000
1001
0011
0110
0001
0000
0000
1000
1100
0000
0000
0001
0000
1001
0000
1111
0101
0000
0000
1000
1101
1000
0001
0001
0000
0110
0000
1101
1000
0000
0111
1111
0010
1100
0000
1000
0000
0011
0000
0111
1111
0011
1000
0000
0100
1101
0001
,
1111
0000
0010
1000
0100
0000
1001
0001
0001
1000
0010
1100
0101
0111
0000
1000
1111
0001
1000
0011
0111
0000
0000
0001
0000
1000
0000
0001
0101
0110
1101
0002
1110
0010
0000
0100
1110
0000
0000
1000
0010
0000
0000
1100
1110
0000
0010
1010
1110
0000
1103
0110
0000
1001
1000
0000
0111
0000
0101
1100
0010
0000
0000
1011
,
1111
0111
1100
0000
1110
0001
0000
0000
0000
1100
0000
0001
0001
0000
1110
0001
1111
0110
1100
0000
1011
0001
0000
0000
0111
0000
1000
1001
0000
0000
1101
0111
1111
0000
1001
0000
0000
1101
1001
0010
0000
0101
1000
0010
1100
0000
1000
0000
1111
0000
0011
0000
0000
1100
0000
0000
0101
0101
0010
0010
0000
0000
1100
0000
,
1111
0111
0011
0000
0000
1100
1000
0000
0101
0110
0000
0011
1100
0000
1101
0000
1001
0010
1001
1100
0000
0000
0000
1101
0001
0100
0000
1000
0000
0000
0011
0101
1111
1101
1000
0011
0001
0100
0000
0001
1100
0000
1011
0011
0000
0100
1000
1100
1111
0001
0001
0010
1100
0110
1100
0000
0000
0000
0001
0011
0000
0011
0000
1100
,
1111
0000
0001
0101
0000
0000
1011
0000
1100
0000
1110
0001
0001
0011
0000
1100
1111
1100
0001
0000
0011
0000
0000
0000
1001
0000
0000
1100
0001
0011
0001
1111
1111
0000
1100
0000
0011
0000
0000
0000
1111
0000
0000
1000
0000
0000
0101
0011
1111
0000
1100
1000
0000
0011
0000
0011
1111
0000
0000
1100
1001
0000
0001
0111
,
1111
0000
1100
1000
0001
0001
0110
1000
0000
0000
1101
0000
1100
1000
0000
0111
1111
0010
0000
1100
0000
0000
0001
1001
0110
0000
0000
0000
0000
1100
0000
1001
1111
0001
0000
0000
0000
1000
1101
1000
0000
0001
0111
0000
0100
1000
0000
0011
1111
0111
1000
0001
0100
1000
1101
0000
0111
0000
1111
0000
1000
1000
0000
0001
,
1111
0111
0000
1000
1100
0000
0101
0001
0010
0001
0010
1100
0000
0001
0000
1001
1111
1010
0000
0100
0000
1101
0111
0000
0011
0000
1000
0011
1100
0011
0000
1001
1111
1100
0101
0011
0000
1100
0101
0000
1000
0000
0000
0011
0011
0000
0000
1101
1111
0000
0100
0001
0010
0011
1100
0000
1101
0000
0001
1001
0010
0000
0111
0001
,
1111
1100
1000
0000
0010
0011
0011
0000
1100
1000
1101
0100
0001
0011
0000
0010
1111
1000
1100
0001
0001
0010
0010
0000
1000
1100
1101
0000
0000
0011
0011
0000
1111
0000
1100
0000
1000
0000
0000
0101
0000
1000
0000
0000
0000
1111
0100
1011
1111
0000
1011
0000
0111
1000
0000
1100
0001
0011
0000
1000
0100
0011
0101
0000
,
1011
0000
0000
0000
1100
1000
0101
0000
0000
0011
0001
0000
0000
1101
0100
0000
1011
0000
0000
0010
0001
0010
1111
0000
0000
1101
0010
0000
0101
1000
0010
0100
1111
0000
1001
0000
0000
0011
0010
0100
1000
0000
0000
0000
1111
0000
0000
0011
1101
0000
1100
1000
0000
0011
0000
0000
0001
0010
0000
1101
1101
0000
0000
0000
,
1111
0111
0001
0000
1000
1100
0000
0000
1011
0001
0011
0100
1101
1000
0000
0010
1101
0011
1100
0100
0000
1000
1000
0000
0011
0001
0010
1100
0000
1101
0000
0001
1111
0011
0000
0000
0000
0011
1111
0000
1101
1000
0010
0000
0011
0100
0000
0101
1101
1101
1000
0000
0000
0011
0011
0000
1100
0100
1000
0000
1101
0001
0000
0010
,
1111
1100
0011
0000
0001
1010
1110
0000
1000
0100
0000
0101
1000
0011
0000
0000
1111
0000
1010
1100
0101
0010
0001
1000
0000
1111
0101
0000
0100
1011
1000
0000
1111
0000
0000
0111
0100
0000
1100
1001
0000
0001
0100
0110
0001
1000
0000
0000
1011
0000
0011
1100
1100
0000
0101
0000
0000
1011
0000
0000
1100
0100
0000
0111
,
1111
0000
1010
0000
1100
1101
0000
0000
0000
0011
0000
1000
0001
0000
1100
0110
1111
0001
1011
0000
1101
0000
0000
1100
0011
0001
0000
1111
0000
0000
0001
0010
1111
0000
1100
1101
1000
0000
0000
0011
0000
0000
0000
1101
0011
0001
0010
0000
1111
1101
1101
0000
0000
0000
0000
0011
0000
0000
1100
1111
0000
0000
1001
0000
,
1111
0101
0000
0000
1100
0000
0000
0000
0000
1001
0011
0001
0010
1000
0000
0000
1101
0001
0000
0000
0011
0000
0011
1000
0000
1100
0000
0011
0001
0000
0000
1101
1111
0000
0000
1100
0011
0000
0000
0000
0011
1001
0000
1000
0000
0001
0111
0000
1111
1100
0000
0000
0001
0011
0100
0011
1001
0010
1000
0100
0000
1101
0000
0000
,
1001
0011
0010
0000
1100
0000
0100
0000
1001
0011
0001
0101
1000
1000
0100
0000
1111
0001
0011
1110
0000
0000
0011
1100
1000
1100
0000
0111
0000
0000
0000
0011
1111
1000
0000
1100
0111
0000
0000
0001
0000
0011
1101
1100
0000
0000
0000
0000
1111
0000
1101
0000
1100
0001
0010
0011
0000
0101
0000
1100
1000
0000
0000
0011
,
1111
0000
1000
0100
0000
1100
1101
0000
0000
0001
0000
0001
0000
0000
0100
0011
1101
0000
1001
0000
0000
0101
0000
0111
1000
1000
0000
1101
0000
0000
0011
0000
1111
1010
0100
0000
1101
0011
0000
0000
0000
1100
0001
1000
0001
0000
0011
0000
1101
1101
1101
0000
1000
0011
0000
0011
0100
0000
0011
1100
0000
1000
0101
0010
,
1111
0100
1100
0011
0000
0000
0000
1100
0011
0000
0111
0000
1111
0000
1000
0100
1111
0000
0000
0011
0001
0000
1000
0011
0100
0100
0111
1001
1000
0000
0000
1100
1111
0011
0000
1011
1100
0000
0010
0000
1100
0001
0011
0001
1000
0010
1100
0101
1111
1000
0010
0000
0101
0000
0000
1100
1001
0001
0010
0001
0101
1100
0000
1000
,
1111
0001
0010
0000
1100
0011
0000
0000
1011
0011
0000
0101
0000
1100
1100
0000
1111
1000
0010
0000
0011
0000
0000
1100
0001
0001
0110
0001
0000
0000
0100
0000
1111
0011
0001
1001
1100
0000
0000
0111
0010
0000
1000
1100
0000
0000
0000
0000
1111
0000
0011
1100
0001
0100
1100
0011
0000
0100
0000
0000
1011
0000
0000
1001
,
1111
0010
1100
1101
0000
0000
1000
0000
0011
0001
0000
1100
1110
0000
0001
1011
1111
0010
0101
0000
1100
1100
0000
0000
1001
0010
0000
0011
0000
1100
0011
0100
1011
0000
1001
1011
0000
0001
1110
0000
0100
0100
0000
1011
1010
0100
0000
1111
1011
0000
1011
1100
0000
0111
1100
0000
0000
1011
0000
0010
1101
0000
0000
0001
,
1111
0000
0101
0000
0011
1000
0001
0011
0010
0100
1011
1100
0000
0000
0011
0000
1101
0000
1100
0000
0000
0000
0001
0011
0001
0000
0000
1100
0000
1101
1101
0000
1111
0000
0000
1000
1101
0000
0000
1001
0011
0000
0001
1011
0100
0001
1001
0010
1111
1100
1011
0000
0000
0100
0000
1111
0011
0001
0010
1100
0000
0000
0101
1010
,
1111
0000
0000
0001
0010
0000
0000
0011
1101
0000
1100
0001
0001
0011
1100
0000
1101
1111
0000
0000
0000
1100
0000
1111
0011
0000
0011
0000
1100
1100
0000
0000
1111
1011
0000
1100
0011
0000
0000
1100
0011
0000
1111
0001
1100
1100
0010
0001
1111
1110
0000
0001
0000
0001
1100
0010
0001
0011
1100
1100
0000
0001
0001
0000
,
1011
0100
0000
1100
0000
1100
0011
0000
1101
1000
0100
0001
0000
0001
1110
0000
1011
0100
0000
1100
0000
0011
0011
0000
1100
0000
1100
0000
0001
0010
0110
0000
1011
0000
1100
1111
0000
0000
0000
1000
0011
0001
0011
0000
1101
0000
1000
0001
1111
0111
1000
0001
0000
1011
0100
0000
1100
1001
0111
0001
0010
0000
1100
1000
,
1111
1110
0000
0111
0000
0001
1000
1110
0000
0000
0111
0010
0000
0100
0001
0111
1111
0000
0000
1111
0000
0000
0011
0010
0100
0111
0000
2000
0000
0111
0000
0001
0111
0000
0100
0111
0000
0000
0000
0000
0111
0111
0000
0000
0000
0111
0000
0111
0111
0000
0000
0000
0101
0111
0010
0000
0000
0000
0000
0111
0111
0000
0000
0000
,
0111
0111
0111
0000
0000
0000
0000
0111
0101
0000
0111
0000
0000
0111
0000
0000
0111
0101
0000
0000
0111
0000
0101
0001
0000
0110
0111
0000
0000
0000
0000
0111
0101
0111
0000
0000
0000
0010
0101
0010
0101
0000
0000
0000
0001
0110
0000
0101
0101
0000
0000
0111
0100
0111
0000
0000
0000
0000
0101
0111
0110
0000
0000
0000
,
0110
0111
0111
0000
0000
0000
0000
0000
0111
0000
0010
0000
0000
0000
0101
0000
0010
0011
0000
0000
0000
0101
0000
0111
0010
0000
0000
0000
0101
0111
0010
0001
0010
0000
0000
0111
0000
0010
0000
0101
0101
0000
0000
0000
0111
0111
0000
0001
0110
0100
0111
0101
0010
0000
0000
0000
0101
0110
0000
0000
0111
0001
0100
0000
,
0111
0111
0111
0001
0100
0000
0000
0000
0111
0100
0101
0010
0000
0000
0111
0000
0111
0111
0000
0000
0000
0000
0000
0111
0011
0000
0101
0000
0000
0111
0000
0000
0111
0101
0000
0101
0010
0000
0000
0111
0000
0000
0011
0000
0000
0101
0101
0000
0111
0000
0000
0111
0000
0101
0111
0000
0000
0110
0001
0000
0101
0000
0000
0110
,
0111
0000
0110
0101
0000
0111
0000
0000
0001
0111
0100
0101
0010
0000
0000
0111
0111
0000
0000
0000
0111
0000
0101
0000
0111
0000
0111
0100
0001
0000
0000
0111
0111
0111
0000
0000
0000
0101
0111
0000
0000
0111
0000
0101
0010
0101
0000
0000
0111
0000
0101
0100
0000
0010
0000
0000
0111
0000
0000
0111
0000
0101
0101
0010
,
0111
0001
0010
0000
0101
0000
0000
0111
0100
0001
0111
0000
0000
0001
0110
0101
0101
0111
0000
0000
0100
0001
0111
0111
0000
0000
0000
0101
0011
0100
0001
0000
0111
0000
0101
0000
0001
0111
0000
0110
0000
0101
0000
0000
0100
0111
0011
0101
0111
0000
0000
0101
0111
0000
0000
0000
0000
0000
0001
0101
0111
0000
0000
0000
,
0111
0000
0111
0100
0000
0010
0000
0101
0000
0000
0000
0111
0000
0000
0101
0000
0100
0001
0111
0101
0110
0000
0000
0000
0000
0000
0111
0000
0000
0000
0101
0000
0011
0001
0110
0110
0000
0101
0000
0000
0101
0111
0000
0000
0101
0000
0000
0000
0010
0111
0101
0000
0000
0000
0000
0001
0111
0000
0100
0000
0000
0000
0000
0111
,
0111
0100
0000
0000
0001
0000
0100
0111
0000
0111
0101
0000
0000
0000
0001
0110
0111
0111
0000
0000
0000
0000
0000
0111
0101
0000
0000
0000
0000
0101
0000
0000
0111
0000
0000
0000
0101
0000
0001
0110
0000
0111
0101
0000
0000
0000
0000
0011
0111
0100
0101
0000
0000
0001
0111
0000
0110
0000
0000
0101
0000
0000
0111
0100
,
0111
0101
0000
0000
0000
0000
0111
0111
0101
0000
0000
0000
0001
0111
0110
0101
0111
0000
0000
0000
0000
0111
0111
0100
0000
0000
0000
0000
0001
0101
0110
0111
0111
0000
0000
0000
0111
0000
0100
0010
0000
0001
0000
0101
0111
0000
0000
0111
0111
0000
0101
0000
0000
0111
0000
0000
0111
0101
0000
0001
0100
0000
0111
0000
,
0111
0000
0000
0000
0111
0110
0101
0001
0000
0000
0000
0000
0000
0111
0000
0000
0010
0000
0000
0111
0001
0100
0111
0000
0000
0000
0000
0000
0111
0111
0000
0000
0011
0000
0000
0110
0101
0111
0000
0000
0000
0000
0111
0000
0101
0101
0010
0000
0011
0100
0000
0001
0101
0111
0000
0000
0000
0000
0111
3001
0110
0100
0000
0000
,
1011
1111
0000
0000
0011
0111
0000
0001
1110
0001
0000
0011
0000
0000
0000
1100
1111
0000
0111
0000
0000
1000
1100
0100
0011
0011
0000
0100
1000
1100
0011
0011
1111
0000
1100
0000
0000
0001
1111
0010
0000
1111
1000
0000
1101
0110
0011
0000
1111
1100
0000
1101
0000
0010
0011
0011
1100
0000
1100
1000
0011
0001
0000
1100
,
1111
0011
1000
1111
0000
0100
1100
0011
0011
0000
1101
0010
1100
0001
0010
1100
1111
0000
0011
0000
0000
0000
1100
0111
0000
0001
1000
0010
0000
1101
0001
0000
1111
1000
0011
0000
1100
0000
0111
0011
2200
0011
0000
0000
0000
0001
0010
0000
0011
0000
0000
0000
0000
0000
0000
3311
0000
0000
0000
1100
0000
0101
0001
0000
,
1111
0000
1101
0000
0000
0000
1100
0011
0000
1011
0100
1000
1100
0000
0011
0000
1111
0000
1100
1100
0000
0011
0000
0011
0000
1100
0001
0010
0011
1100
0000
0000
1111
0000
0000
1111
0000
0000
0011
1100
0000
0000
1100
0000
0011
0000
1111
0000
1111
1100
0000
0011
0000
0000
1000
0011
0100
0000
1111
0000
0000
0000
0011
1100
,
1101
1111
0000
0000
1101
0010
1100
0000
1011
0100
0000
0000
0000
1100
0011
0001
1111
1100
0011
0000
1100
0011
0011
0000
1100
0000
0000
1100
0011
0011
1100
0000
1101
1100
1100
0000
0001
0011
0000
0000
1100
1100
0011
0001
0001
0010
1110
0000
1111
1111
1100
0000
0001
0110
0000
1001
1110
1100
0000
0001
0010
0011
0000
0000
,
1111
1100
0001
0001
1011
0110
0000
1100
0101
0000
1001
1100
0010
0011
0000
1101
1101
0110
1000
0011
0010
0011
1100
0000
1000
0100
1111
0000
0001
0011
0000
1100
1111
0000
0000
0011
0000
0010
0010
0000
1000
1100
0000
0000
0011
0000
0000
1100
1101
0000
0000
0111
0001
0000
0000
0000
0000
1100
0001
0000
1100
0001
0000
0011
,
1111
0000
0100
1000
0000
0000
0011
0000
0011
1100
0000
1100
1100
0011
0000
0011
1111
0000
1100
1011
0001
0010
0011
1100
0000
1100
0011
0001
1000
0010
1100
0111
1111
0011
1000
0000
1111
0000
0001
1100
0111
0010
0000
1101
1010
0000
0000
0100
1111
0000
0011
0011
0000
1010
0000
0002
1100
0100
0000
0000
1010
0000
0000
0000
,
1110
0110
0010
0000
0000
1110
1003
0000
0001
1110
0000
0000
1101
0010
0000
0000
1111
1101
0000
0001
0101
1010
1100
0000
0000
0011
1100
0011
0111
1001
1100
0000
1111
1100
0000
0001
0110
0000
0010
1000
0000
0000
1101
0000
0001
0010
0000
0000
1111
0000
0000
1010
0000
1001
0000
1111
0000
0000
0000
1011
1001
0010
1101
0000
,
1101
0011
0000
1000
0011
1100
0111
1100
0000
0000
1011
0011
0100
0001
1100
0000
1111
0011
0010
1000
0000
1100
0110
0100
0011
0011
0000
0000
0100
1000
1000
1100
1111
0011
0011
0111
0000
1100
0000
0000
1001
0000
0010
0000
0110
1100
0000
1100
1111
0011
0111
0000
0000
1100
0001
0000
1101
0000
0010
0111
0000
0000
1011
0000
,
1111
1101
0100
0000
0011
0001
0000
0000
1000
0000
0001
1111
0000
0000
0101
0000
1111
0011
0100
0000
1010
0000
0000
0011
0001
0000
1000
0010
0100
0000
1111
0000
1111
0001
1110
1000
0000
0100
1101
0011
0000
1000
0100
0011
0000
0000
0111
1101
1111
0100
1000
0000
0000
0111
0000
0000
1100
0000
0100
0001
1000
0000
1011
0000
,
1110
0011
0100
1100
1101
1000
0001
0010
0001
0010
0011
0100
1100
1000
0001
0000
1101
0111
0010
0000
0000
1100
0000
1101
0100
0000
0000
0001
0011
0000
0001
1101
1111
1100
0000
0011
0000
0001
0001
1110
1100
0000
1101
0000
0010
0001
1101
0010
1111
1100
1000
0011
0000
0001
0000
1101
0000
0000
1000
0000
0011
0101
0000
0000
,
1101
1100
0000
1101
0010
0010
0001
0000
0000
1100
0001
0000
1101
0010
0001
0010
0100
0000
1101
1100
0000
1011
0000
0011
0000
1100
0101
0000
1000
0000
1001
0011
0000
0000
1100
1101
0000
0000
0001
0000
0010
1101
0001
0000
1000
0000
0000
0000
1101
1101
0000
0001
0000
0000
0011
0000
1110
1100
0001
0000
0011
1000
0000
0011
,
0011
1100
1100
1011
0000
0000
0101
0000
1101
0000
0000
0001
0001
0010
0010
1101
0000
1000
0000
0011
0101
0010
0000
1100
1100
0000
0000
0001
0000
0011
0000
1000
1100
1100
0001
0000
0001
0000
0011
0000
0011
0000
1100
1000
0000
0100
0101
0001
0000
0000
0001
0001
1000
0010
1100
0011
1100
0000
0011
0001
1111
0000
0000
1100
,
0000
1111
0000
0000
0000
0011
1100
0000
1000
0000
1111
0101
0000
0000
1000
1100
0001
0001
0010
0011
1100
0000
1100
0001
0000
1101
0001
0010
0000
0010
0000
1111
0000
0000
0000
0000
1000
0011
0001
0101
0010
0100
1000
1000
0000
0100
0001
0011
0110
0000
0000
1100
1000
0000
0101
0001
0010
0000
0000
0000
0011
1100
1101
1001
,
0100
0010
0000
0000
0000
0011
1101
0000
1101
0000
0010
0000
0000
0000
0011
1101
0000
1100
0000
0000
0000
0011
0000
0111
0000
0000
1100
0000
0001
0111
0000
1100
0000
1101
0000
1000
0011
0001
0010
0000
1001
0000
1100
0101
0001
0010
1001
0000
0000
1100
0000
1110
0001
0000
0011
1000
0011
0000
0000
0000
1101
0000
1000
0001
,
0000
0001
0000
0000
0011
0000
0001
0000
0001
0000
1111
0000
0000
0011
0000
1100
1100
0000
0000
0011
0000
0001
0010
1001
1100
0100
0101
1010
0000
1000
1001
0100
0000
0000
0000
0011
0111
0000
1000
1000
1100
0101
0001
0011
0010
0000
0000
0100
1100
1000
0000
0001
0011
0000
0000
0000
0000
1101
1100
0000
1100
0000
0000
0011
,
0000
0000
0001
0000
1000
0100
1000
0101
0001
0000
0001
1000
0010
0000
0000
0110
0001
1010
0000
0011
0000
0000
1001
0000
1111
0100
0000
1001
0010
0000
0001
0000
0000
1111
0000
0011
1000
0100
0100
0000
1100
1000
0011
0000
0001
0000
0000
1111
0000
0000
1001
1111
0000
0101
0000
0000
1111
0000
0000
1101
0000
0010
0000
0011
,
1001
1100
0000
0000
1100
0000
1101
0001
0000
0000
0010
0000
0011
1101
0000
1100
1000
0011
0000
0001
0101
1100
0000
0000
0001
0000
1010
1101
0100
1000
0001
0011
0000
0011
0000
0101
1100
0000
1100
1011
0000
0000
1001
0111
0010
0000
0000
1100
0000
0011
0101
0011
0000
0000
0000
0000
0001
0100
1000
0000
0001
1110
1001
0010
,
0000
0001
1101
1000
0100
0000
0000
0011
0011
0001
0000
1110
0000
1100
1000
0001
0011
0101
0000
0000
1000
0000
1011
0000
0000
1100
0011
0010
0001
1100
0000
1110
0000
0011
1100
0000
0000
0001
1000
0011
0010
0000
1000
0100
0000
1001
0000
0101
0000
0001
1000
0000
0000
0101
0011
0000
0010
1100
0000
1000
1100
0000
0101
0011
,
0010
0000
0000
1100
0000
0000
1000
0011
0000
0000
0001
0000
1101
0000
0011
0000
0010
0000
0000
1100
0011
1100
0011
1000
0000
0100
1101
0000
0000
0000
0011
1000
0101
0000
0010
0000
0000
0111
0000
0010
1001
1100
1101
0000
0000
0000
0011
0001
0001
0100
1000
1100
0000
0000
0000
0011
0001
0100
1000
0010
0100
1100
1010
0001
,
0001
0011
0000
1100
1000
0000
0001
0111
1100
0001
0000
0000
1111
0000
0001
0010
0000
1111
0000
1100
0000
0000
0000
0011
0000
0000
1001
0000
1100
0000
0000
0010
1111
0000
1000
0000
0000
0111
0011
0100
1100
0000
1001
0000
0000
0000
0011
0000
0111
0000
1101
0000
0000
0000
0000
0001
1001
0000
0010
0111
0000
1100
0000
0000
,
1011
0001
0000
1011
0100
0000
0000
1011
0000
0000
0000
1100
1101
0000
0001
0110
0011
0000
1000
1000
0100
1100
0000
0001
0000
0010
0001
1010
0100
0000
1100
0000
0001
0010
0000
0011
0001
0100
0000
1000
1100
0001
0000
0111
0000
0000
0011
0000
0011
1000
1100
0000
1111
0000
0000
1011
0000
0011
0000
1100
0010
1101
0011
0000
,
0000
0000
1011
0100
0000
1000
0100
0011
0000
0000
0111
0001
1110
1000
0001
1000
0010
0111
0000
0100
0000
1100
1000
0001
0001
0111
1000
0000
0000
1000
1100
0000
0101
0011
0110
0011
0000
0000
0100
1000
1000
1100
0001
0011
0010
0000
0011
0000
0000
1100
1000
1101
0000
0001
0000
0011
0111
0000
1100
1000
0000
0000
0101
0010
,
0001
1000
0000
1100
0000
0000
0000
0111
0010
1101
0000
0000
1100
0000
0000
0001
0011
0000
1101
0001
0000
1100
0000
1000
0011
0000
0001
1110
0000
0000
0001
0000
1000
0011
0000
1111
1100
0000
0000
1011
0000
0100
0001
0000
1000
0000
0011
0100
1100
0000
0000
1101
0011
0001
0000
1010
0000
0011
0000
0000
1101
0000
0000
0001
,
0011
0000
0000
0100
1101
1000
0001
0010
0011
0010
0100
0000
1000
1100
1101
0010
0011
0000
0000
1100
1001
0000
0100
0011
0011
0000
0100
1000
1100
0000
0100
0001
0011
0011
0000
0100
1000
0000
0000
1000
0011
0011
0001
0000
1100
1100
0000
0011
0000
0011
1001
0010
0000
1111
0000
0000
1101
0000
1110
0000
0000
0011
0011
1100
,
0100
0000
0000
1011
0000
0000
0011
1101
1100
1000
0000
0100
0011
0011
0011
0000
1100
1100
0000
0000
0001
0111
0000
0011
0000
0000
1100
0000
1000
0000
0001
0101
0001
0000
0001
0100
0000
0000
0000
1001
1000
1001
0000
0011
0010
0011
1100
0000
1100
0000
1111
0000
0001
0000
0110
1100
0011
1011
0000
0000
0011
0000
1100
0000
,
0000
1100
0011
0000
0001
0010
0000
1111
0000
0000
1000
0101
0000
0001
0000
0000
0011
0000
1000
1100
0100
0000
0000
0011
0011
0001
0010
1111
0000
0100
0011
0000
1000
1100
0100
1001
0011
0000
0000
0011
0011
1100
0000
1100
1100
0011
0000
0000
0011
0000
1111
0000
1100
1111
0000
0000
0000
0111
0000
1001
0000
0011
0000
0000
,
0000
0000
0011
1100
1101
0000
0011
0011
0000
0100
1100
1000
0000
0000
0000
0011
0001
0000
0000
0010
1100
1100
1111
0001
0010
0000
0000
1000
0001
1100
0000
0011
0001
0001
0000
0000
1100
0011
0000
0000
0111
1000
0000
0000
0001
1100
0010
0000
0001
1100
0010
0001
0010
0011
0000
0000
0000
1100
1100
0100
0000
0011
0000
0011
,
0100
0100
0001
1000
0000
1000
0111
0000
0011
0000
1100
0111
0000
0000
1001
1111
0000
0000
0001
0000
1110
0000
1000
0100
1011
0000
0000
0000
0111
1101
0000
0000
0000
0011
0000
0000
0000
0000
1101
0001
0000
0000
0011
0011
1100
1100
0000
0011
0000
0000
0001
0000
1100
1111
0011
0000
1111
1100
0000
0000
0001
1111
0000
0000
,
0011
0000
1111
0000
0001
1100
1110
0000
0001
0011
0000
1110
1100
0000
1100
0000
0011
0011
0000
0000
1000
1000
0000
1100
0000
0011
0011
0001
0000
1110
0000
0000
1011
1001
0000
0000
0001
0101
1110
0000
1100
0011
0000
0011
1100
0011
1000
0000
0101
1100
0010
0011
0011
1100
0000
0000
1001
1100
0000
0000
0011
0011
0100
0000
,
0000
1101
0000
0000
0000
0000
1100
0011
0000
0001
1011
0000
1000
0100
0000
0001
0010
0011
1101
0000
0000
1111
0000
0000
0011
0000
1100
0000
1100
1000
0011
0000
0000
1111
0000
0001
0000
1000
0011
0000
0000
1100
0001
1101
0000
0011
0011
0000
1000
0000
0100
1100
0000
0011
0011
0010
0000
1100
1100
0000
1101
0010
0001
0011
,
0000
1010
1100
0000
1100
0011
0001
0010
0001
0000
0010
1100
0000
0100
1011
0001
0100
1100
0000
0011
0001
0000
1000
1100
0110
0000
1101
0011
0010
0000
1001
0100
0000
1100
0000
0011
0000
0000
1011
0100
0000
0000
0001
0000
1010
0000
0000
1101
0000
1100
0001
0000
0000
1101
0000
0000
0001
1111
0001
0000
0000
0011
1100
0000
,
0000
0011
1100
0011
1100
1111
0000
0001
0010
0000
1111
0000
0000
0011
1100
0000
0000
0011
0000
1100
1100
1100
0011
0000
0000
0000
0011
0000
1000
1100
1100
0000
0000
0001
0010
0011
0000
1100
0000
0000
0001
0000
0001
0000
0000
0000
0000
0000
0011
0001
1100
0000
1111
0000
0010
0000
0001
0011
1100
1100
0000
1111
0000
0000
,
1101
0011
0010
0000
0000
1100
0111
1000
0000
1111
0000
0000
0010
1101
1000
0101
1100
0000
0001
0000
0000
0111
0011
0000
0000
1100
0000
0000
0011
0011
0000
0000
0000
1100
0000
1000
0001
1101
0111
0000
0000
0011
1000
0000
1101
0000
1100
0101
0000
0000
0011
0001
1101
1110
0000
0000
1100
0011
0000
0011
0000
0111
1100
1100
,
1001
0010
0000
0000
0001
0111
0100
1000
1000
0100
0001
0000
0010
0000
0111
0000
0000
0010
0000
1001
1000
0100
0000
1011
0000
0100
0000
0000
1111
0000
0001
1100
0010
1000
0001
0000
0111
1110
0000
1011
0100
1000
0000
0000
1100
0111
0011
0000
0001
1110
1000
0000
0000
1000
0000
0001
0000
0000
0101
1111
0010
1001
0000
0100
,
0101
0000
0001
0010
1000
0001
1100
0011
0000
0101
0000
0010
0101
0000
0000
0101
0011
1110
0000
0000
1100
0000
0000
0111
0000
0011
0000
0000
1000
0000
0100
1100
0011
0000
0001
0011
1000
0101
0000
1000
1100
0001
0000
0011
0000
0011
0000
0000
1000
0010
1101
0000
0000
0001
0000
0001
0000
0000
0110
1101
0000
1000
0000
0000
,
0011
0011
1100
1001
0000
0000
1000
0011
0000
0100
0000
0111
1000
0000
1011
0010
0101
0000
0000
0000
1101
1100
0001
0100
0001
1011
0000
0000
0000
1001
0100
0010
0000
0000
1001
0000
0101
0000
0011
0011
0000
0000
1101
1100
0000
0000
0000
0011
0011
0000
0111
0100
1100
0000
0001
0010
1001
0010
0001
1100
0000
0000
1000
0111
,
0000
0000
0000
1000
0101
0000
0011
0000
0011
0011
0000
1100
1000
0000
0100
0011
0000
0111
0000
0000
1100
0100
0000
1011
0011
0000
0100
0000
1000
1111
0000
0011
0100
1001
0000
0100
0000
1000
0001
0000
0011
0000
0000
0011
0000
1100
1000
0111
0011
0000
0000
1000
0011
0000
1100
0000
1111
0001
1000
0000
0001
0011
0000
0011
,
1100
1100
0000
1100
0011
0000
0000
0001
0010
1111
0000
0000
1100
0011
0000
0000
0100
0001
1001
0000
0000
0011
0000
0000
1100
0000
1101
0000
0001
0000
0011
0000
0000
1100
0000
1100
0000
0000
0011
0011
0000
0000
1100
0000
0101
0000
0011
0011
0100
0000
1000
1000
0000
0111
0001
0011
1000
0100
0000
1001
1000
0000
0010
0000
,
0001
1100
0000
0000
0000
0011
0001
0000
1000
1110
0100
0010
1100
0001
0011
0000
1100
0000
1100
0000
0011
0001
0010
0011
0000
1100
1000
1000
0100
0000
0011
0010
0000
1000
1000
1100
0100
0001
0000
0011
0000
0010
0010
0000
1100
1000
0000
0101
0111
0000
0000
0000
0000
1111
0011
0001
0100
0000
0100
0000
1000
0011
0100
0011
,
0000
1000
0100
1101
0010
0000
0000
0011
0001
1110
0000
0100
1111
1000
0000
0000
0011
1000
0001
0000
0000
1100
0000
0011
0101
0010
1000
0001
0100
1000
1100
0011
0000
0011
0000
0010
1100
1100
0100
0000
0001
0000
0011
0011
0010
1100
0000
0100
1100
1000
0000
0011
0000
0010
0100
1000
1100
0000
0001
0011
0000
0000
1100
0001
,
0000
1100
0000
0011
0001
1000
0010
1100
0101
1000
0011
0000
0001
0000
1110
0000
0000
1111
0000
0011
1100
0000
0000
1011
0010
0100
1100
0000
0001
1101
0010
0000
0011
0000
0000
0100
1100
1000
0000
1001
0011
0001
0000
0100
1000
0011
0000
0001
0100
0010
1111
0000
1100
0000
0011
1001
0000
0010
0000
0000
1100
1111
0000
0011
,
0000
1100
0011
0000
0000
1100
0111
0000
0011
0000
0011
0011
0000
0000
1100
1000
0100
0001
0000
1101
0011
0000
0011
0011
1100
0000
1100
1111
0000
0000
0011
1100
0000
1100
0000
0000
1111
0001
0000
0011
1100
0000
1110
0000
0000
1111
0000
0010
0001
1000
0100
1000
0000
0000
1101
0000
0011
0000
0000
0000
1101
1100
0000
0000
,
0101
1011
1100
0000
0000
0011
1100
0000
1100
1000
0011
0111
0001
0000
1110
1000
0000
1100
0011
0000
0010
1101
0001
0010
0011
1100
0000
1100
0000
0000
1001
0011
0000
0011
1100
0100
0000
1001
0000
0000
1111
0100
0001
1100
0000
1000
0001
0000
0001
0111
0000
0001
1100
1000
0000
0011
1100
0000
1111
0011
1000
0011
0000
0000
,
1100
1100
0000
0111
0011
0000
0000
1100
0000
0000
1101
0010
0000
1111
0111
0000
0100
0000
1000
1001
0000
0111
0000
1100
0011
1011
0000
1000
0111
0100
1011
0000
1001
0010
0000
1101
0000
0110
1000
0000
1000
0011
0000
0000
1101
0000
0010
1011
0000
0100
1000
0100
0001
0000
0011
0000
0000
1101
0000
0000
1111
0000
0000
0100
,
0111
1011
0000
0000
1111
1000
0000
0000
1111
0111
0000
1100
1000
0011
0011
0000
0110
0000
1100
1000
0100
0011
0000
0111
0010
0000
0000
1100
0000
1100
1001
0000
0000
0011
0000
1100
0000
1101
1100
0000
0000
0011
0000
0000
1100
0000
1100
0000
0001
0001
0010
1000
0000
0100
0001
1100
0011
0000
0000
1100
0011
0001
0001
0000
,
0000
1101
0111
0000
0000
1100
0000
0001
1111
0000
0000
1000
0100
1000
0100
1101
0000
0000
0000
0011
1101
0000
0001
1100
0000
0000
0001
1111
0000
0000
1011
0000
0100
0001
1100
0010
0111
0000
1100
0000
0000
1001
1110
0000
0011
1000
0100
0101
1000
1100
0000
0011
0000
0011
1101
0000
1100
0001
0000
0001
0010
0101
0000
1011
,
0000
1100
1100
0000
0001
0011
1100
0000
1100
0001
0000
0011
1100
1101
0000
1111
0000
0000
0001
0000
1101
1110
0000
0000
1111
0000
0000
1101
0000
0000
0000
0000
0011
1101
0001
0000
1100
0000
0100
0001
1101
0001
1110
0000
0000
1011
0000
1101
1100
0001
0000
0000
0011
0010
1101
0100
1000
0000
1100
0000
0000
1111
0000
0000
,
1100
1000
0000
0001
1111
0000
0000
0000
0000
1100
0000
1101
0011
0000
0000
0000
0000
1100
1101
0000
1001
0000
0010
0000
0011
0100
0000
1111
0011
0000
1100
0000
0001
1010
0001
1100
0111
0000
1100
0000
0000
0000
1101
0000
0011
0000
1100
0000
0000
1101
0000
0000
1101
0000
0000
1111
1101
0000
1101
0010
0000
0100
1000
0001
,
0011
1101
0000
1110
1100
0000
0011
0000
1101
0011
0000
1100
1100
0000
0000
1101
0000
0011
0000
1100
0000
0011
0001
0000
0100
1100
1000
0000
0110
0001
0000
0000
0000
1100
0000
0010
0111
0101
0000
0011
1000
0000
1001
0000
0110
0100
0001
1000
0000
0000
0001
1111
0000
0111
0000
0000
1000
0000
0111
1101
0000
0110
0000
0000
,
1000
0011
0000
0110
0001
0000
0111
0000
0001
0000
0110
0000
0111
0000
1000
0000
0000
0111
0111
0000
1000
0000
0000
0001
0111
0110
2010
0000
0000
0000
0000
0000
0111
0111
0000
0000
0000
0111
0000
0101
0010
0000
0000
0100
0000
0010
0000
0000
0000
0111
0101
0010
0000
0000
0000
0111
0001
0110
0000
0000
0000
0000
0001
0110
,
0110
0001
0000
0000
0000
0100
0001
0010
0111
0000
0000
0000
0000
0000
0111
0100
0000
0010
0000
0000
0000
0110
0111
0000
0000
0000
0000
0000
0000
0001
0111
0110
0000
0000
0000
0000
0110
0001
0000
0000
0000
0000
0000
0000
0000
0111
0000
0000
0020
0000
0101
0000
0000
0000
0000
0000
0001
0101
0000
0000
0000
0000
0031
0000
,
0101
0011
0000
0000
0000
0001
0100
0000
0001
0101
0000
0000
0000
0101
0000
0000
0101
0101
0000
0000
0101
0000
0000
0001
0001
0010
0000
0101
0010
0000
0101
0111
0000
0000
0101
0111
0111
0000
0000
0000
0000
0000
0001
0101
0110
0111
0000
0000
0000
0111
0000
0111
0000
0000
0000
0000
0101
0111
0000
0111
0000
0000
0000
0111
,
0000
0101
0000
0110
0000
0000
0111
0000
0000
0001
0000
0000
0010
0001
0111
0000
0000
0111
0000
0000
0111
0000
0000
0101
0010
0000
0000
0111
0000
0000
0000
0111
0000
0000
0000
0111
0000
0000
0100
0000
0011
0001
0000
0110
0000
0101
0010
0000
0001
0111
0000
0000
0000
0000
0111
0000
0111
0001
0000
0000
0011
0000
0100
0000
,
0111
0000
0000
0000
0111
0000
0000
0111
0000
0000
0011
0000
0100
0001
0000
0111
0000
0000
0000
0000
0111
0100
0000
0010
0000
0000
0000
0001
0111
0111
0000
0000
0000
0000
0000
0011
0111
0100
0000
0000
0000
0000
0001
0001
0110
0000
0100
0000
0000
0111
0000
0111
0000
0000
0000
0000
0000
0111
0000
0000
0111
0000
0001
0000
,
0000
0111
0111
0000
0001
0000
0000
0000
0101
0010
0111
0000
0000
0000
0000
0000
0000
0111
0111
0000
0000
0000
0001
0110
0000
0000
0000
0111
0000
0000
0111
0000
0000
0111
0000
0001
0000
0000
0000
0100
0101
0111
0000
0010
0000
0000
0100
0111
0000
0111
0000
0000
0000
0001
0100
0011
0111
0100
0000
0000
0000
0000
0111
0111
,
0000
0000
0000
0000
0000
0101
0101
0111
0000
0000
0000
0000
0101
0101
0000
0111
0000
0000
0000
0000
0000
0111
0000
0111
0000
0000
0000
0000
0001
0111
0110
0000
0000
0000
0000
0001
0001
0111
0110
0000
0000
0000
0000
0111
0001
0000
0111
0000
0000
0000
0000
0000
0111
0111
0000
0000
0000
0000
0000
0111
0000
0111
0101
0000
,
0000
0000
0000
0111
0100
0101
0010
0000
0000
0000
0000
0111
0111
0000
0101
0000
0000
0000
0000
0111
0111
0000
0000
0101
0000
0001
0000
0110
0000
0111
0101
0000
0000
0111
0000
0000
0000
0000
0111
0101
0000
0111
0000
0000
0111
0001
0000
0111
0000
0000
0000
0000
0000
0111
0000
0111
0000
0000
0000
0110
0001
0101
0000
0111
,
0000
0000
0000
0000
0001
0111
0101
0000
0000
0000
0000
0101
0000
0010
0000
0101
0010
0000
0101
0101
0010
0000
0000
0000
0101
0010
0000
0111
0000
0000
0000
0101
0000
0111
0000
0100
0000
0000
0001
0100
0000
0111
0000
0000
0000
0000
0101
0111
0000
0111
0000
0000
0000
0101
0110
0101
0000
0010
0000
0000
0101
0000
0011
0111
,
0000
0000
0000
0000
0001
0100
0000
0111
0000
0000
0000
0000
0111
0000
0000
0000
0111
0000
0000
0101
0000
0111
0000
0000
0110
0000
0101
0011
0000
0101
0110
0000
0000
0000
0000
0101
0010
0000
0111
0000
0000
0000
0101
0000
0111
0000
0110
0000
0000
0000
0110
0101
0101
0000
0010
0000
0000
0110
0101
0000
0101
0010
0000
0100
,
0010
0001
0000
0100
0110
0000
0000
0110
0000
0000
0101
0000
0110
0000
0000
3002
0010
0100
0010
0100
0000
0000
0000
0000
1010
0000
0100
0010
0000
0000
0000
0000
0010
1000
0110
1100
0000
0000
0010
1000
1100
1100
0010
0000
0010
1000
1100
0000
0000
1100
0110
0000
0010
0000
1100
1100
0000
0000
0010
0110
1100
0000
1000
0000
,
1100
0000
0010
1100
0000
0110
0100
0000
1000
0000
1100
0110
0010
0000
0000
0000
1100
1100
0000
0110
0010
0000
0000
0000
0000
0000
1100
0110
0000
0000
0110
0000
1110
0000
0000
1100
0000
0000
0110
1100
0000
0010
0000
1000
0100
0000
0110
0100
1000
0000
1000
0000
0000
1100
0000
0000
0000
0010
0000
0000
1000
0100
0100
0000
,
0000
0000
0010
1000
0000
0100
0000
0000
0000
0000
0010
0000
1100
0000
0000
0000
0000
0010
1100
0000
0000
0000
0000
0000
0000
1000
0110
1100
0000
0000
0000
0000
0000
0000
1100
0000
0000
0000
1100
0000
0000
1110
0000
0000
0000
0000
1000
0000
0000
1010
1100
0000
0000
0000
0000
0010
0000
1100
0000
0000
0000
0000
0010
0000
,
1100
1100
0000
0000
0000
0000
0010
0000
1000
1100
0000
0110
0000
0010
0000
0000
1100
0000
1100
0110
0000
0000
1000
0000
1100
1100
0000
0010
0000
0010
1000
1100
0000
0010
0000
0000
1000
0010
1100
0000
0000
0010
0000
0000
0000
0000
1010
1100
0000
0010
0000
1000
0000
0000
1100
1000
0000
0010
0000
0100
1000
0000
0100
1110
,
0000
0000
0000
0000
1100
0000
1000
0110
0000
0000
0000
0000
1100
0000
0000
1110
0000
1100
0000
0000
1100
0000
0000
1110
1100
0000
1100
0000
0010
0010
0000
1100
0000
0000
1100
0000
0000
0010
0000
0000
1100
1000
1000
0010
0000
0010
0000
0000
1100
1100
0000
1110
0000
0000
0000
0000
1110
0000
0000
0010
1100
0000
0000
1000
,
1100
0100
0010
0010
0000
0100
1100
0000
1100
0000
0010
0010
0000
0000
1100
1100
0000
1110
0010
0000
0000
0000
1100
1100
0010
0000
1100
0000
0010
0000
1100
1000
0100
0010
0000
1100
0000
0000
1100
0000
0000
0000
0000
0010
1100
0000
0000
0003
0010
0000
0000
1111
0000
1100
0011
0000
0000
0100
2002
0100
0000
0100
0110
0000
,
0000
0000
0000
0000
0010
0000
0000
0000
0000
3000
0110
0000
0003
1000
0101
0000
1011
0000
0000
0000
0000
0000
1101
0101
1000
0010
0000
0000
0000
1011
0000
0101
0000
0000
0000
1101
0000
0000
0001
0000
1000
0010
1001
0001
0000
0001
1001
0000
1100
1111
0000
0000
1110
0000
0010
0111
1000
0000
1101
0000
0000
0011
0000
0110
,
1101
1000
0000
1001
0010
0000
0001
0000
0111
1100
1101
0010
0001
0010
0000
0101
1000
1000
1100
0111
0011
0001
1100
0000
1001
0100
0000
0010
0000
0111
1101
0000
0000
1111
0000
0000
0001
1000
0000
1000
0000
0000
0111
1001
0000
0000
0000
0001
0000
1111
2111
0000
0000
0010
0111
0000
0000
0100
0001
0000
0100
0000
0111
0000
,
0000
0001
0000
0000
0111
0000
0010
0001
0000
0000
0000
0111
0111
0000
0001
0000
0000
0000
0000
0111
0000
0111
0000
0000
0000
0101
0111
0010
0001
0000
0000
0000
0001
0111
0010
0001
0000
0000
0000
0001
0000
0111
0000
0000
0000
0001
0001
0010
0000
0111
0000
0000
0000
0000
0000
0111
0000
0111
0000
0000
0000
0011
0100
0001
,
0000
0110
0000
0000
0000
0011
0101
0010
0100
0000
0000
0000
0001
0011
0100
0111
0101
0000
0000
0000
0001
0001
0111
0110
0000
0000
0000
0000
0001
0011
0111
0100
0000
0000
0000
0000
0000
0111
0000
0110
0000
0000
0000
0001
0101
0111
0000
0100
0000
0000
0001
0101
0010
0001
0000
0110
0000
0101
0000
0100
0000
0000
0000
0011
,
0101
0000
0100
0000
0000
0000
0000
0101
0100
0000
0111
0000
0000
0000
0101
0101
0010
0000
0000
0000
0000
0000
0000
0111
0000
0110
0001
0000
0000
0101
0000
0010
0000
0000
0000
0000
0111
0000
0010
0000
0000
0000
0000
0101
0010
0000
0000
0000
0010
0000
0101
0010
0000
0000
0000
0000
0000
0000
0010
0000
3002
0000
0020
0000
,
0000
0000
1000
0000
0000
0000
0000
0000
0000
0000
1000
0000
0000
0000
0000
0000
0000
1000
0000
1000
0000
0000
0000
1100
0000
0000
1100
0000
0000
0000
0000
1100
0000
0000
1100
0000
0000
0000
0000
0000
0000
0000
1000
1000
0000
0000
0000
1100
0000
0000
0000
0000
0000
1100
0000
0000
0000
0000
0100
1000
0000
0000
0033
0000
,
1101
0000
0001
1110
0000
0000
1101
1000
0000
0000
0000
1100
0000
0010
0001
1100
0011
0000
0000
1100
0000
1101
0001
0010
0000
0101
0001
1010
0000
0000
0001
0001
1100
0000
1000
0011
0111
0000
0111
0000
0000
1011
0000
0000
0001
1101
0110
1000
0000
0000
0001
0000
0000
1101
0000
1000
0000
0000
0010
0000
0000
1000
1101
0001
,
0101
0011
0000
0000
1000
0000
1001
1100
0110
0001
1000
0110
0000
1000
1101
0011
0001
0000
0000
0000
1110
0001
0101
0000
0010
1100
0000
1100
0101
0000
0000
1111
0000
0000
0001
0000
1100
0011
0000
0000
1111
0000
0001
0000
0000
0011
0000
0000
0000
1100
0001
1000
0000
0001
0000
0000
0101
1011
0101
0000
0001
1110
0001
0000
,
0011
1000
0000
1100
0000
0011
0111
0000
1000
1100
1100
0001
0000
0001
0000
0011
0000
0000
1100
0000
0000
1011
0000
0011
1001
0000
0100
1100
1000
0011
0000
0000
1000
0111
0000
1000
0100
1011
0000
0101
1000
0100
0000
0001
1010
0010
0000
0000
1001
1100
0101
0000
0011
1111
0000
0000
0000
1100
0000
0000
1111
0000
0011
0000
,
1001
0000
0100
1111
0000
1100
0000
1000
0011
0000
0000
0010
0111
1100
1100
0000
0001
1101
0000
1000
0000
0011
0000
1100
0001
0000
1000
0110
0001
0000
1000
0001
0010
0011
0000
0000
0000
1101
0000
0100
0010
0011
0000
0000
0100
0001
1101
0001
0010
0010
0111
0000
1100
0000
1000
0111
0010
0111
0000
0000
2000
0000
0001
0010
,
0111
0100
0001
0000
0000
0000
0111
0111
0000
0101
0000
0000
0101
0000
0011
0000
0110
0000
0000
0000
3111
0000
0111
0001
0000
1100
0001
0000
0110
0000
0111
0001
0110
0000
0111
0000
1111
0000
0101
0000
0001
0000
0110
0000
0000
1101
0000
0000
1011
0000
0000
1100
0000
0000
1111
0000
0000
1100
0000
0000
0011
0011
0000
1100
,
0110
0000
0011
0000
0111
1100
0000
1000
0111
0000
0000
1111
0000
1000
0011
0000
1110
1100
0101
0001
0010
1000
0000
1000
0010
0101
0100
0001
0000
1000
0001
0001
1101
1000
0000
0000
0011
0000
0001
1100
0011
0000
0011
1000
0000
1111
0001
1000
0011
0000
0000
1000
0102
0000
0000
0000
0010
0010
0000
1100
0000
2000
0000
0010
,
0000
0000
0100
0000
0000
0000
0000
0100
0000
0110
0010
0000
3000
0000
0000
0010
1000
0100
0110
0000
0000
0100
0000
1110
0000
0000
0100
0000
0010
0000
0000
0000
1110
0000
1100
0000
0000
0010
0000
1003
0100
1000
0001
1001
0000
0110
0010
0101
1000
0100
1101
0000
0000
0000
0000
0011
0101
0000
1100
1000
0000
0111
0001
0000
,
1101
0000
1000
0001
0000
0000
1111
1111
0000
0001
0000
1100
0011
0000
1101
1100
0000
0000
0001
0001
0010
0000
0000
1100
0000
0101
0101
1000
0001
0000
0000
1000
0100
0000
0101
1000
0001
0000
0111
0001
0000
2100
0000
0000
0000
0001
0111
0000
0000
0000
0000
0000
0111
0000
0011
0000
0000
0100
0001
0000
0011
0101
0000
0000
,
3001
1000
0110
0000
1111
0000
0000
0000
0011
0100
1000
0100
0000
1010
0000
0101
0110
0000
1001
0100
0000
0000
1110
0000
0000
1000
0111
0000
0000
0010
0000
1100
1002
1100
0000
0000
0010
1000
0000
0000
1100
0000
0110
0000
0000
0000
1000
1010
0000
0000
0000
1000
0000
0100
0000
0100
0010
0000
1100
1100
0000
0000
0000
0000
,
0100
0010
1000
1100
0000
0003
1000
0100
0101
0001
0000
1000
1110
0000
0101
1100
0101
0000
0010
1000
0000
1000
0101
0001
0000
0000
0000
0010
0000
1000
1101
0101
0000
0000
0000
0000
0001
0011
0000
1001
0000
0000
1100
0000
0101
0111
0000
0000
1101
0000
1000
0011
0000
0111
1100
0001
1100
0011
0000
0000
1100
0000
0001
0010
,
1111
0000
0000
1100
0000
0001
1111
0010
0000
1100
1000
0111
0001
0010
1010
0000
0000
0101
0010
1101
0000
0101
0000
1000
0000
1101
0111
0000
0001
0000
1000
0011
1000
0000
0111
0111
0000
0001
1100
0000
1100
0011
0111
0011
0000
0000
1100
1100
0000
0011
0001
0001
0000
1110
0000
0000
1101
0000
0011
0000
1000
1100
0001
0100
,
1001
0111
0010
1000
0000
0100
1011
0000
0111
1101
0000
1010
0001
0010
1100
1101
0000
0000
0000
1011
0000
1100
0001
0000
0001
0000
0000
0011
0101
1000
1111
0000
0000
0001
0000
1111
1000
0000
0110
0000
1000
1000
0000
0000
0001
0110
0110
0000
0000
0000
0000
1000
1000
1001
0000
0000
0222
1000
0000
0000
1000
0000
1000
0000
,
0000
0000
0000
1000
0000
1000
0000
0000
0000
0000
1000
1000
0000
0000
0000
0000
1000
0000
1000
0000
0000
0000
0000
1000
0000
0000
0000
0000
0000
0000
1000
1000
0000
0000
0000
0000
1000
0000
0000
1000
0000
0000
0000
1000
0000
0000
1000
0000
0000
1000
0000
0000
1000
0000
0000
0000
1000
0000
0000
0000
1000
0000
0000
0000
,
0000
1000
0000
0000
1000
0000
0000
0000
1000
1000
0000
0000
0000
0000
1000
0000
0000
1000
0000
0000
0000
0333
1000
1000
0000
1111
0000
0000
1000
0000
0000
0001
0111
0000
1000
0100
1001
0100
0000
0000
0000
0000
0101
1000
0000
0111
0000
0000
0001
0000
1100
1000
1011
0000
0000
1101
1000
0001
0000
0000
1100
0111
0000
1001
,
1010
0000
1101
0111
0010
0000
0001
1100
0010
0001
0110
1100
0000
0011
1011
0100
0101
1010
1100
0000
0001
1001
0000
0110
0000
0000
1111
0000
0000
1011
1100
0001
1101
0010
0100
0000
1100
0001
0010
0011
0100
1000
0000
1100
0000
0001
0001
0000
0010
1000
0000
1101
0000
0000
0011
0000
0000
0001
1000
1100
0000
0000
0001
0011
,
0010
1100
0000
0000
0000
1100
0000
0011
0000
1111
0000
0000
0001
0010
1100
0000
0000
0000
1100
0011
0000
0011
0000
0000
0000
0000
1101
0000
0000
0001
0011
0000
0000
0100
0000
1000
0000
1001
0011
0100
0000
0000
1111
0000
0000
0011
0000
1100
0000
0000
1110
0000
0000
0001
0100
0010
1000
1100
0010
0000
0000
1100
0011
0000
,
1222
0000
0000
1000
1000
0000
0000
0000
0000
0000
0000
0000
0000
0000
1000
1000
0000
0000
0000
1000
0000
1000
0000
0000
0000
0000
0000
0000
1000
1000
0000
0000
0000
0000
1000
1000
0000
0000
0000
1000
0000
0000
1000
0000
0000
0000
1000
1000
0000
0000
0000
1000
0000
0000
1000
0000
0000
0000
1000
0000
0000
1000
0000
1000
,
0000
0000
0000
0000
1000
0000
1000
0000
0000
0000
1000
1000
0000
0000
0000
0000
1000
0000
0000
0000
0000
0000
0000
1000
1000
0000
0000
0000
1000
0000
1000
0000
0000
0000
0000
1000
0000
0000
0000
1000
0000
1000
0000
0000
0000
0000
1000
0000
0333
0000
0000
0000
0000
0000
0000
0000
0000
0000
0000
0000
0000
0000
0000
0000
;

//---------------dance-single - medium(20)----------------
#NOTES:
     dance-single:
     medium(20):
     Medium:
     20:
     1.000,1.000,1.000,0.337,1.000,2308.000,938.000,66.000,0.000,209.000:
0000
0000
1000
0101
0000
0000
0000
0000
0000
0000
0000
0000
0000
0000
0000
1101
0000
0000
0000
0000
0000
0000
0000
0001
1100
0000
0000
0000
0000
0000
0000
0000
0000
0000
1101
0000
0000
0000
0000
0000
0000
0000
0000
0001
1100
0000
0000
0000
,
0000
0000
0000
0000
0000
0100
0001
1000
0000
0000
0000
0000
0000
0000
0000
0000
1001
0100
0000
0000
0000
0000
0000
0000
0000
0000
0000
0011
0000
0000
0000
0000
0000
0000
0000
0000
0000
0000
0111
0000
0000
0000
0000
0000
0000
0000
0000
0101
,
0010
0000
0000
0000
0000
0000
0000
0000
0011
0100
0000
0000
0000
0000
0000
0000
0000
0000
0000
0111
0000
0000
0000
0000
0000
0000
0000
0000
0000
0011
0000
0000
0000
0000
0000
0000
0000
0000
0000
0000
0000
0000
0000
0000
0000
1100
0000
0000
,
0000
0000
0000
1100
0000
0000
0010
0000
0000
0000
0000
0000
1100
0000
0000
0010
0000
0000
0000
0000
0000
0000
1100
0000
0000
0000
0010
0000
0000
0000
0000
0000
1100
0000
0000
0010
0000
0000
0000
0000
0000
1100
0000
0000
0010
0000
0000
0000
,
0000
0000
0000
0000
1100
0000
0000
0010
0000
0000
0000
0000
0000
0100
1000
0000
0010
0000
0000
0000
0000
0000
0000
0000
0000
0000
0000
0000
0010
0000
0000
0000
0000
0000
0000
0000
0000
0111
0000
0000
0000
0000
0000
0000
0000
0000
0000
1001
,
0000
0000
0000
0000
0000
0000
0000
0000
1000
0000
0000
0001
0000
0000
0000
0000
0000
0000
1000
0000
0000
0001
0000
0000
0000
0000
0000
0000
0000
1000
0001
0000
0000
0000
0000
0000
0000
0000
1001
0000
0000
0000
0000
0000
0000
0000
0000
0000
,
0000
0000
0000
0001
0000
0000
0000
0000
0000
0000
0000
0001
0000
0000
0000
0000
0000
0000
0000
0000
1000
0001
0000
0000
0000
0000
0000
0000
0000
0000
0000
0000
0101
0000
0000
0000
0000
0000
0000
0000
0000
0000
0000
1100
0001
0000
0000
0000
,
0000
0000
0000
0000
0000
1100
0000
0001
0000
0000
0000
0000
0000
1101
0000
0000
0000
0011
1100
0000
0000
0001
0010
1000
0100
0000
0011
0000
0000
0000
1000
0101
0000
0000
0000
0101
0000
0000
0000
0000
0000
0001
0000
0000
0000
0000
0001
0000
,
0000
0000
0111
0000
0000
0000
0000
0111
0000
0000
0000
0000
0111
0000
0000
0000
0000
0001
0010
0000
0000
0000
0000
0101
0000
0000
0000
0000
0100
0000
0000
0000
1100
0000
0000
0000
0000
0000
1010
0000
0000
0000
0000
1100
0000
0000
0000
0000
,
1010
0000
0000
0000
0000
0000
0000
0000
0000
0000
1010
0000
0000
0000
0000
0100
1000
0000
0000
0000
0000
1010
0000
0000
0000
0000
1100
0000
0000
0000
0000
1010
0000
0000
0000
0100
1000
0000
0000
0000
0000
0000
1010
0000
0000
0000
1010
0000
,
0000
0000
0000
1000
0000
0000
0000
0000
0000
0000
0000
1100
0000
0000
0010
1100
0000
0000
0000
0010
1100
0000
0000
0010
0000
1100
0000
0000
0010
0000
0000
1100
0000
0000
0010
0000
1000
0000
0000
0000
0000
0000
0001
1000
0000
0000
0000
0011
,
0000
1000
0000
0001
0010
0000
1000
0000
0000
0011
0000
0000
1000
0011
0000
0000
0000
1000
0001
0000
0000
0000
0000
0000
0001
0000
0000
0000
0011
1000
0000
0000
0011
0000
1000
0000
0000
0000
0000
0000
0000
0000
0000
0000
0000
0001
1000
0000
,
0000
0000
0000
0000
0000
0000
0001
0000
1000
0000
0000
0000
0001
0000
1000
0000
0000
0011
1000
0000
0000
0000
0011
1000
0000
0000
0001
0000
0000
1000
0000
0001
0000
0010
1000
0000
0011
0000
0000
1000
0000
0000
0001
0000
0000
0011
0000
1000
,
0000
0000
0000
0000
0101
0000
0000
0001
0000
0000
1100
0000
0011
0000
0000
0000
0101
0000
0000
0000
0000
0000
0000
0010
0000
0000
0100
0000
0000
0000
0000
0000
0010
0000
0000
0000
0000
0100
0000
0000
0000
0000
0000
0010
0000
0000
1000
0000
,
0000
0000
0000
0100
0000
0000
0000
1000
0000
0000
0000
0000
0000
0101
0000
0000
0000
0000
0001
0000
0000
0000
0001
0100
0000
0000
0000
0000
0000
1000
0000
0000
0000
0001
0200
0000
0000
0000
0000
0000
0000
0000
0000
0000
1000
0000
0302
0000
,
0000
0000
0000
0000
0000
0000
0010
0000
0000
0000
0000
0000
0003
1000
0000
0002
0000
0000
0100
0000
0000
0000
1000
0000
0000
0000
0000
0010
0000
0000
1003
0000
0100
0000
0010
0000
1100
0000
0000
0000
0001
0000
0100
1000
0000
0011
0000
0000
,
1000
0100
0001
0000
0000
0000
0001
0000
0000
0000
0000
0000
0101
0000
0000
0000
0000
0000
0011
0000
1000
0000
0000
0101
0000
1000
0000
0000
0001
0000
0100
0000
0000
1001
0100
0000
0000
0000
1000
0001
0000
0000
0000
0000
0011
0000
1000
0000
,
0000
0010
0000
0000
1000
0000
0000
0000
0000
0100
0000
0000
0000
0000
0000
1002
0000
0000
0000
0000
0000
0000
0010
0000
0000
0000
0003
1000
0000
0000
0000
0000
0000
0001
0000
0000
0000
0000
0100
0000
0000
0000
1000
0000
0002
0000
0000
0000
,
0000
0000
0000
0000
0000
0000
0000
1000
0000
0000
0000
0000
0000
0000
0000
0200
0000
0000
0000
0000
0000
2003
0000
0000
0000
0000
0000
0302
0000
0000
0000
0000
0200
3000
0000
0000
0000
0003
0000
1000
0000
0000
0002
0000
0000
0300
0000
0000
,
0000
0000
0000
0010
0000
0000
0000
0000
2003
0000
0000
0000
0000
0000
0000
0000
0020
0000
0000
0000
0000
0000
0000
0000
0000
0000
0000
0000
0000
0000
0000
0000
0000
0000
0000
0000
0000
0000
0000
0000
0000
0000
0000
0000
0000
0000
0000
0000
,
0000
0000
0000
0000
0000
0000
0000
0000
0000
0000
0000
0000
0000
0000
0000
3000
0030
0000
0000
0000
0000
0000
0000
1100
0000
0000
0001
0000
0000
0000
0000
1000
0100
0000
0001
0010
0000
1000
0000
0100
0011
0000
0000
0100
1000
0010
0001
0000
,
0000
0000
0000
0000
0001
0000
0000
0000
1101
0000
0011
0000
0000
1000
0000
0101
0000
0000
0000
0000
0101
0000
0000
0000
0001
0000
0100
0000
0000
0000
0011
0000
0000
0000
0000
0111
0000
0000
0000
0000
0010
0000
0000
1000
0000
0000
0000
0000
,
0000
1010
0000
0000
0000
0000
1000
0000
0000
0000
0000
1010
0000
0000
0000
0100
1000
0000
0000
0000
1000
0000
0010
0000
0000
0000
1100
0000
0000
0000
0001
0010
0000
0000
0000
0000
0101
0000
0000
0000
0000
0011
0000
0000
1000
0101
0000
0000
,
0000
0000
0011
0000
0000
1000
0000
0101
0000
0000
0000
0000
1001
0000
0000
0000
0000
0000
0101
0000
0000
0000
0000
0011
0100
0000
1000
0000
0001
0000
0000
1100
0000
0001
0010
0000
1100
0000
0000
0011
0000
0000
1100
0000
0001
0000
0000
0000
,
0000
1101
0000
0000
0200
0000
0000
1000
0000
0000
0000
0000
0000
0000
0000
0000
0000
0000
0000
0000
0000
0000
0000
0000
0000
0000
0000
0000
0000
0000
0000
0000
0000
0000
2000
0000
0000
0300
0000
0000
0002
0000
0000
0000
3000
0000
0000
0000
,
0000
0000
0000
0020
0000
0000
0000
0003
0000
0000
2000
0000
0000
0000
0000
0000
0030
0000
0000
0000
0000
0000
0000
0200
0000
0000
0000
0000
0000
0000
3000
0000
0002
0000
0000
0300
0000
0000
0000
0000
0000
0000
0010
0003
0000
0000
1000
0000
,
0000
0000
0000
0000
0001
0200
0000
0000
2000
0000
0000
0000
0000
0000
0000
0000
0000
0000
0000
0000
0000
0000
0000
0000
0000
0000
0000
0000
0000
0000
0000
0000
0000
0000
0000
0000
0000
0000
0000
3000
0000
0300
0000
0000
0000
0000
0000
0000
,
0000
0000
0000
0000
1101
0000
0000
0000
0000
0000
0000
0000
0000
0000
1000
0001
0000
0000
0000
0000
0000
1100
0000
0000
0001
0000
0000
0000
0000
0001
0000
1000
0000
0000
0101
0000
0000
0000
0011
0000
1100
0000
0000
0000
0011
1100
0000
0000
,
0011
0000
0100
1000
0000
0011
0000
1100
0000
0000
0011
0000
0000
0000
0000
0101
0000
0000
0000
0000
0110
0000
0000
0000
0000
0010
0000
0000
0000
0110
0000
0000
0000
0000
0110
0000
0000
0000
0000
0110
0000
0000
0000
0000
0100
0010
0000
1000
,
0011
0000
0000
1000
0000
0000
0000
0001
0000
0000
1100
0000
0001
0000
0000
0000
1101
0000
0000
0000
0000
0101
0000
0000
0000
0000
0001
0000
0000
0000
0000
0000
0011
0000
0000
0000
0101
0000
0000
0000
0000
0000
0000
0010
0000
0000
0000
0100
,
0000
0000
0000
0000
0000
0000
0000
0000
0000
0000
0000
0000
0000
0000
0000
0000
0000
0000
0000
0000
0000
0000
0000
0000
0000
0000
0000
0000
0001
0010
0000
1000
0000
0000
0011
0000
0100
1000
0000
0011
0000
0000
1000
0000
0001
0010
0000
0000
,
0000
1100
0011
0000
0000
0000
0010
0001
0000
0000
0000
0001
1100
0000
0000
0000
0000
0011
0000
1000
0000
0001
0100
0000
1000
0000
0000
0011
0000
0000
0000
1101
0000
0000
0000
0000
0011
0000
1000
0000
0000
0101
0000
1000
0000
0000
0110
0000
,
0000
1000
0000
0010
0000
0000
0000
0000
0010
0000
0000
0000
1000
0000
0010
0000
0000
0010
0000
0000
1000
0100
0000
0010
0000
0100
0000
1000
0010
0000
0100
0000
0000
0001
0000
0010
1000
0000
0101
0000
0000
1000
0000
0000
0011
0000
0000
0000
,
0000
1101
0000
0000
0000
0000
0000
0000
0001
0000
0000
0000
1101
0000
0000
0000
0000
0000
0000
0000
0101
0000
0000
0000
0000
0000
0000
0000
0000
0000
0000
0000
0000
0000
0100
0000
0000
0000
0000
0100
0000
0000
0000
0000
1100
0000
0000
0000
,
0000
0000
0000
0000
1000
0000
0001
0000
0000
0000
1100
0000
0001
0000
0000
0000
0000
0001
0000
0000
0000
0000
0000
0001
0000
0000
0101
0000
0000
0200
0010
0000
0000
0000
0000
0000
0000
0000
1000
0000
0300
0000
0000
0002
0000
0000
0000
0000
,
0000
0000
0000
0100
0000
0000
0003
0000
1000
0000
0000
0000
0001
0000
0000
0000
0000
0020
0000
0000
0000
0000
0000
0000
1000
0000
0000
0000
0000
0000
0000
0000
0000
1000
0000
0030
0000
0000
0000
0100
0000
0000
0000
0002
0000
0000
0000
0000
,
0000
0000
0000
0000
0000
0000
0000
0000
0010
0000
0003
2000
0000
0000
0000
0000
0000
0000
0000
0200
0000
0000
0000
0000
0000
0002
3000
0000
0000
0300
0000
0000
0000
0000
0000
0010
0000
1003
0000
0000
0000
0000
0101
0010
0000
0000
1100
0000
,
0001
0000
0000
0100
1000
0000
0001
0002
0000
0000
0000
1100
0000
0000
0000
0000
1100
0000
0003
0002
0000
0010
0000
0000
1100
0000
0010
1100
0000
0000
0000
0000
0000
1100
0000
0000
0000
0000
0000
0100
1000
0000
0000
0000
0000
0010
0000
0003
,
1100
0000
0011
0000
1000
0100
0001
0000
0010
0100
1000
0000
0001
0010
0000
1100
0000
0000
0011
0000
0000
1100
0000
0010
0000
0000
0000
0000
0000
1100
0000
0000
0000
0000
0000
0010
0000
0000
0000
0100
0010
0000
0000
0100
0010
0000
0000
0000
,
0000
0000
0000
0000
0000
0000
1000
0000
0000
0000
0001
0000
0000
0000
0000
0001
0000
0000
0000
0000
1001
0000
0000
0000
0000
0000
0000
1000
0000
0001
0000
0000
0010
0000
0000
1000
0000
0110
0000
0000
0000
0000
1000
0000
0000
0000
0000
0000
,
0000
0000
1000
0110
0000
0110
1000
0000
0000
0000
0000
0000
0000
0000
0000
0000
0110
0000
0000
0000
0000
0110
0000
0000
,
0100
0000
0000
0010
0000
0000
0000
0110
0000
0000
0000
0110
0000
0000
0000
0000
0110
0000
0000
0010
0000
0000
0000
0000
0000
0000
0000
0000
0000
0000
0000
1100
0000
0000
0000
0000
0000
0000
0000
0000
0000
0000
0100
1000
0000
0000
0000
1100
,
0000
0000
0000
0100
0000
1000
0000
0000
0101
0000
0000
0000
0000
1000
0001
0010
0000
0000
1100
0001
0000
0000
0000
0000
0000
0011
0000
1000
0000
0000
0011
0000
1000
0000
0000
0011
0000
0000
0000
0000
1101
0000
0000
0000
0000
0101
0000
0000
,
0000
0000
0101
0000
0000
0101
0000
0000
0000
0000
0000
0101
0000
0000
0000
0000
0101
0000
0000
0000
0000
0100
0001
0000
0000
0100
0000
1001
0000
0000
0000
0000
1100
0000
0000
0000
1100
0000
0000
0000
0000
1100
0000
0000
0000
0000
0100
1000
,
0000
0000
0000
1100
0000
0000
0000
0000
1100
0000
0000
0000
0000
0000
1100
0000
0000
0000
1000
0000
0010
0000
0000
1010
0000
0000
0000
0000
0000
1010
0000
0000
0000
0000
1010
0000
0000
0000
0000
1010
0000
0000
0000
0000
0000
1010
0000
0000
,
0000
0000
1010
0000
0000
0000
1010
0000
0000
0000
0000
0010
0000
0001
0000
0000
0011
0000
0000
0000
0000
0000
0011
0000
0000
0000
0000
0011
0000
0000
0000
0000
0011
0000
0000
0000
0001
0010
0000
0000
0000
0000
0000
0011
0000
0000
0000
0000
,
0011
0000
0000
0000
0000
0000
0110
0000
0000
0100
0000
0010
0000
0000
0000
0110
0000
0000
0000
0000
0110
0000
0000
0000
0000
0110
0000
0000
0000
0000
0110
0000
0000
0000
0000
0000
0110
0000
0000
0000
0110
0000
0000
0000
0000
0110
0000
0000
,
0000
0000
0000
1010
0000
0000
0000
0000
1010
0000
0000
0000
0010
1000
0000
0000
0000
0000
0000
1010
0000
0000
0000
0000
1010
0000
0000
0000
0010
1000
0000
0000
0000
0000
1010
0000
0000
0000
0000
1100
0000
0000
0000
0000
1100
0000
0000
0000
,
0000
1100
0000
0000
0000
0000
0000
1100
0000
0000
0000
0000
1100
0000
0000
0000
1100
0000
0000
0000
0000
1100
0000
0000
0000
0000
1100
0000
0000
0000
0100
0000
1001
0000
0000
0001
0000
0100
0000
0000
0000
0000
0101
0000
0000
0000
0000
0001
,
0100
0000
0000
0000
0000
0110
0000
0000
0100
0010
0000
0000
0000
0100
0010
0000
0000
0000
0000
0110
0000
0000
0000
0010
1000
0000
0000
0000
1010
0000
0000
0000
0000
0010
1000
0000
0000
0000
0000
1010
0000
0000
0000
0000
1010
0000
0000
0000
,
0000
1010
0000
0000
0000
0000
0000
1010
0000
0000
0000
0000
1000
0010
0000
0000
1001
0000
0000
0000
0000
0001
0000
0000
0000
0000
0000
0000
0000
1101
0000
0000
0011
1100
0000
0000
0000
0011
0000
0000
0000
0011
0000
1100
0000
0000
0001
0010
,
0000
0000
1000
0001
0000
0100
1000
0000
0000
0000
0010
1000
0000
0100
0010
0000
0000
0000
1100
0000
0002
0210
0000
2000
0000
0000
0000
0000
0000
0000
0000
0000
0300
0100
0000
3000
0010
0000
1000
0000
0100
0000
0000
0010
0000
1100
0000
0000
,
0010
0000
0000
0000
0000
0000
0110
0003
0000
1001
0100
0000
0000
0010
0000
0000
0001
0000
0000
0000
0000
0001
0000
0000
0110
0000
0000
0011
0000
0000
0100
0000
0002
0000
0000
1000
0100
0000
0010
0000
0000
1000
0000
0010
0000
0000
0000
0000
,
1100
0010
0000
0000
1100
0000
0000
0010
0000
1000
0100
0000
0000
0010
0000
1000
0100
0010
0000
0003
0000
1100
0001
0010
0000
0000
1100
0000
0000
0011
0000
0000
1000
0000
0010
0000
0000
0000
0000
0100
0000
0000
0000
0010
0000
0000
1000
0000
,
0100
0000
0000
1000
0000
0000
0011
0000
0000
1000
0100
0001
0000
0000
0000
0001
1010
0000
0000
0000
0000
0101
1000
0000
0000
0000
0001
0000
0000
1000
0101
0000
0000
0000
0000
0011
0000
0000
0000
0000
0111
0000
0000
0000
0111
0000
0000
0000
,
0100
0010
0000
0000
0000
0000
0111
0000
0000
0000
0000
0000
0000
0000
0000
1100
0000
0000
0000
0000
1000
0000
0000
0000
0000
0000
1100
0000
0000
0000
0000
1010
0000
0000
0000
0000
0100
1000
0000
0000
0000
0000
1010
0000
0000
0000
0000
1100
,
0000
0000
0000
0000
0000
1010
0000
0000
0000
0000
0110
0000
0000
0000
0000
0010
0000
0000
1100
0000
0000
0010
0000
1100
0000
0000
0010
1000
0100
0000
0000
0010
0100
1000
0000
0000
0010
1000
0000
0100
0000
0010
0000
0000
0000
0000
0000
0000
,
0000
0000
0000
1101
0000
0000
0000
0000
0000
0000
0000
1101
0000
0000
0000
0000
1101
0000
0000
0000
0100
1001
0000
0000
0000
0000
0000
1101
0000
0000
0000
1101
0000
0000
0000
0000
0000
0000
0000
0000
0000
0000
0000
0000
0111
0000
0000
0000
,
0000
0000
0000
0000
0111
0000
0000
0000
0000
0111
0000
0000
0000
0001
0110
0000
0000
0000
0101
0010
0000
0000
0000
0011
0100
0000
0000
0000
0000
0000
0000
0000
0000
0100
1001
0000
0000
0000
0000
0000
0000
0000
0000
0000
0100
1001
0000
0000
,
0101
0000
1000
0000
0000
0101
1000
0000
0000
0000
0000
1101
0000
0000
0000
0000
1101
0000
0000
0000
0000
0000
0000
0000
0000
1100
0000
0000
0000
0000
0000
0000
0000
0000
0000
0000
1000
0000
0010
0000
0000
0010
0000
0000
0000
0010
0000
0000
,
0000
0000
0010
0000
0000
1100
0000
0010
0000
0000
1100
0000
0000
0000
0000
0000
0000
0000
1100
0000
0000
0010
0000
0000
0000
0000
0000
0000
1001
0000
0100
0000
0000
0001
0000
0100
1000
0000
0000
0101
1000
0000
0000
0000
0011
0000
1000
0000
,
0000
0100
0001
0000
0000
1000
0000
0000
0111
0000
0000
0101
0010
0000
0000
0000
0000
0111
0000
0000
0000
0000
0111
0000
0000
0000
0000
0000
0000
0000
0000
0000
0000
1101
0000
0000
0000
0000
0111
0000
0000
0000
0000
0001
0110
0000
1000
0000
,
0011
0000
0000
0000
0000
0000
0000
0000
0000
1100
0000
0001
0000
0000
0000
0000
0000
1100
0000
0000
0000
0000
0000
0000
0000
0000
1000
0000
0000
0000
0000
0000
0000
0000
0000
1100
0000
0000
0000
0000
0000
0000
0000
0000
0001
0000
1100
0000
,
0000
0000
0000
0000
0000
0000
0100
1000
0000
0001
0000
0000
0000
1100
0000
0000
0000
0000
0001
0000
0000
1100
0000
0000
0011
0000
0000
0000
1100
0000
0000
0000
0000
0000
1000
0000
0000
0000
0000
0000
1101
0000
0000
0000
0000
0000
0101
0000
,
0000
0000
0000
0101
0000
0000
0000
0000
0000
0011
0000
0000
0000
1000
0101
0000
0000
0000
0000
0101
0000
0000
0000
0000
0101
0000
0000
0000
0000
0000
0001
0010
0000
0000
0000
0000
1101
0000
0000
0000
0000
0011
0000
0000
0000
0000
0101
0000
,
0000
0000
1000
0010
0100
0000
0000
0000
1000
0000
0000
0000
0000
0001
0000
1000
0000
0000
0000
0000
0010
0000
0000
1100
0010
0000
0000
1100
0000
0000
0000
0010
0000
0000
1100
0001
0000
0000
0000
1000
0000
0000
0011
0000
0000
1000
0000
0101
,
0000
0000
0000
0000
0001
0000
0000
0000
0000
0000
1101
0000
0000
0000
0000
0011
0000
0000
1000
0000
0001
0100
1000
0000
0000
0000
0011
0000
0000
1000
0000
0011
0000
0000
1100
0000
0001
0010
0000
1100
0000
0000
0011
0000
1100
0001
0000
0010
,
0000
0000
0000
0000
0000
0000
0000
0000
0000
0000
0000
0000
0000
0000
0000
0000
0001
0000
0000
0000
0000
0000
0000
0000
0000
0000
0000
0000
0000
0000
0000
0000
0000
0000
0000
0000
1000
0000
0000
0000
0000
0000
0000
0000
0010
0000
0000
0000
0000
0000
0000
0000
1101
0000
0000
0000
0000
0000
0000
0000
0000
0000
0000
0000
0011
0000
0000
0000
0000
0000
0000
0000
1100
0000
0000
0000
0000
0000
0000
0000
0000
0000
0000
0000
0011
0000
0000
0000
0000
0000
0000
0000
0000
0000
0000
0000
1000
0000
0000
0000
0000
0000
0000
0000
0001
0000
0000
0000
0000
0000
0000
0000
0000
0000
0000
0000
0000
0000
0000
0000
0000
0000
0000
0000
0101
0000
0000
0000
0000
0000
0000
0000
0000
0000
0000
0000
0000
0000
0000
0000
0000
0000
0000
0000
0000
0000
0000
0000
0110
0000
0000
0000
0000
0000
0000
0000
0000
0000
0000
0000
0100
0000
0110
0000
0000
0000
0000
0000
0000
0000
0000
0000
0000
0000
0000
0000
0000
0000
0000
0000
2000
0000
0000
0110
0000
0000
0000
0000
0000
0000
0000
0000
,
0000
0000
0000
0000
0000
0000
0000
0000
0000
0000
0000
0000
0110
0000
0000
0000
0000
0000
0000
0000
0000
0000
0000
0000
0000
0000
0000
0110
0000
0000
0000
0000
0000
0000
0000
0000
0002
0000
0000
0000
0000
0000
0000
0000
0000
0000
0000
0000
0110
0000
0000
0000
3000
0000
0000
0000
0000
0000
0000
0000
0000
0000
0000
0110
0000
0000
0000
0000
0000
0000
0000
0000
0000
0000
0000
0000
0100
0000
0000
0000
0000
0000
0000
0000
0000
0000
0000
0000
0000
0000
0000
0000
0003
0000
0000
0000
2000
0000
0000
0000
0000
0000
0000
0000
0000
0000
0000
0000
0000
0000
0000
0000
0000
0000
0000
0000
0000
0000
0000
0000
0000
0000
0000
0000
0000
0000
0000
0000
0000
0000
0000
0000
0000
0000
0000
0000
0000
0000
0000
0000
0000
0000
0000
0000
0000
0000
0000
0000
0000
0000
0000
0000
0000
0000
0000
0000
0000
0000
0000
0000
0020
0000
0000
0000
0000
0000
0000
0000
0000
0000
0000
0000
3000
0000
0000
0000
0000
0000
0000
0000
0000
0000
0000
0000
0000
0000
0000
0000
0000
0000
0000
0000
,
0000
0000
0000
0000
0100
0000
0000
0000
0000
0000
0000
0000
0000
0000
0000
0100
0000
0000
0000
0000
1000
0000
0000
0000
0030
0000
0000
0000
0000
0000
0100
0000
0102
0000
0000
0000
0000
0000
0000
0000
0000
0000
0000
0000
0000
0000
0000
0000
0000
0000
0000
0100
0100
0000
0000
0000
0010
0000
0000
0000
0000
0000
0000
0000
0000
0000
0100
0000
0000
0000
0000
0000
0100
0000
0000
0000
0000
0000
0000
0000
0000
0100
0000
0000
0100
0000
0000
0000
1000
0000
0000
0000
0100
0000
0000
0000
0000
0000
0000
0000
0100
0000
0100
0000
0000
0000
0000
0000
0000
0000
0000
0000
0000
0000
0000
0000
0100
0000
0000
0000
0000
0000
0000
0100
0010
0000
0000
0000
0000
0000
0000
0000
0000
0000
0000
0000
1100
0000
0100
0000
0000
0000
0000
0000
0000
0000
0000
0000
0010
0000
0000
0000
0000
0000
0000
0000
0000
0000
0000
0000
0100
0000
0100
0000
1000
0000
0000
0000
0000
0000
0000
0000
0000
0000
0000
0000
0010
0000
0000
0000
0000
0000
0000
0000
0000
0000
0000
0000
1100
0000
0000
0000
,
0010
0000
0000
0000
0000
0000
0000
0000
0000
0000
0000
0000
1010
0000
0000
0000
0100
0000
0000
0000
0000
0000
0000
0000
0000
0000
0000
0000
0010
0000
0000
0000
1000
0000
0000
0000
0000
0000
0000
0000
1110
0000
0000
0000
0000
0000
0000
0000
0100
0000
0000
0000
1000
0000
0000
0000
0000
0000
0000
0000
0000
0000
0000
0000
1000
0000
0000
0000
0000
0000
0000
0000
0003
0000
0000
0000
0000
0000
0000
0000
0000
0000
0000
0000
0000
0000
0000
0000
0000
0000
0000
0000
0000
0000
0000
0000
0000
0000
0000
0000
0000
0000
0000
0000
0000
0000
0000
0000
0000
0000
0000
0000
0000
0000
0000
0000
1100
0000
0000
0000
0100
0000
0000
0000
0001
0000
0000
0000
0000
0000
0000
0000
1000
0000
0000
0010
0000
0000
0000
0000
1101
0000
0000
0000
0000
0000
0000
0000
0001
0000
0000
0000
0101
0000
0000
0000
1110
0000
0000
0000
0000
0000
0000
0000
1011
0000
0000
0000
0000
0000
0000
0000
1101
0000
0000
0000
0010
0010
0000
0000
0000
0000
0000
0000
1000
0000
0000
0000
0000
0000
0000
0000
,
2222
0000
0000
0000
,
0000
0000
0000
0000
0000
0000
0000
0000
0000
0000
0000
0000
0000
0000
0000
0000
0000
0000
0000
0000
0000
0000
0000
0000
0000
0000
0000
0000
0000
0000
0000
0000
0000
0000
0000
0000
0000
0000
0000
0030
0000
0000
0000
0000
0000
0000
0000
0000
0000
0000
0000
0000
3303
0000
0000
0000
0000
0000
0000
0000
0000
0000
0000
0000
0000
0000
0000
0000
0000
0000
0000
0000
0000
0000
0000
0000
0001
0000
0000
0000
0000
0010
0000
0000
0020
0000
0000
0100
1000
0000
0000
0000
0000
0000
0000
0000
1101
0000
0000
0000
0001
0000
0000
0000
0100
0000
0000
0000
1001
0000
0000
0000
1100
0000
0000
0000
0001
0000
0000
0000
0000
0000
0000
0000
0100
0000
0000
0030
1100
0000
0000
0000
1001
0000
0000
0000
0000
0000
0000
0000
0111
0000
0000
0000
1001
0000
0000
0000
1100
0000
0000
0000
0000
0000
0000
0000
0001
0000
0000
0000
1100
0000
0000
0000
0010
0000
0000
0000
1000
0000
0000
0000
0000
0000
0000
0000
1111
0000
0000
0000
0000
0000
0000
0000
0000
0000
0000
0000
1100
0000
0000
0000
,
0000
0000
0000
0000
0011
0000
0000
0000
0000
0000
0000
0000
0000
0000
0000
0000
0000
0000
0000
0000
1000
0000
0000
0000
0000
0000
0000
0000
0010
0000
0000
0000
0001
0000
0000
0000
0000
0000
0000
0000
0000
0000
0000
0000
1100
0000
0000
0000
0001
0000
0000
0000
0000
0000
0000
0000
0000
0000
0000
0000
0010
0000
0000
0000
0001
0000
0000
0000
1100
0000
0000
0000
0000
0000
0000
0000
0000
0000
0010
0000
0001
0000
0000
0000
0010
0000
0000
0000
0000
0000
0000
0000
0000
0010
0000
0000
1100
0000
0000
0000
0000
0000
0000
0000
0000
0000
0000
0000
0011
0000
0000
0010
0000
0000
0000
0000
1100
0000
0000
0000
0000
0000
0000
0000
0010
0000
0000
0000
0011
0010
0000
0000
0000
0000
0000
0000
0000
0000
0000
0000
1100
0000
0000
0000
0000
0000
0000
0000
0001
0000
0000
0000
0010
0000
0000
0000
0100
0000
0000
0000
0000
0000
0000
0000
1011
0000
0000
0000
0000
0000
0000
0000
1101
0000
0000
0000
0000
0000
0000
0000
0011
0000
0000
0000
0000
0000
0000
0000
1000
0000
0000
0000
,
1100
0000
0000
0000
0010
0000
1000
0000
0001
0000
0000
0000
0000
0000
0000
0000
0011
0000
0000
0000
0100
1000
0000
0000
1100
0000
0000
0000
0000
0000
0000
0000
0011
0000
0000
0000
0111
0000
0000
0000
0000
0000
1000
0000
0000
0000
0000
0000
0001
0000
0000
0000
0000
0000
0000
0000
0111
0000
0000
0000
0000
0000
0000
0000
0010
0000
1000
0000
0000
0000
0000
0000
0000
0000
0000
0000
0111
0000
0000
0000
0000
1000
0000
0000
0000
0000
0000
0000
1000
0000
0000
0000
0000
0000
0000
0000
0101
0000
0000
0000
0010
0000
0000
0000
0000
0000
0000
0000
1000
0000
0000
0000
0000
0000
0000
0000
0010
0000
0000
0000
0001
0000
0000
0000
0100
0000
0000
0000
0010
0000
0000
0000
0010
0000
0000
0000
1100
0000
0000
0000
0001
0000
0000
0000
0000
0000
0000
0000
0010
0000
0000
0000
1000
0000
0000
0000
0000
0000
0000
0000
0000
0000
0000
0000
0000
0000
0000
0000
0011
0000
0000
0000
0010
0000
0000
0000
0000
0000
0000
0000
1100
0000
0000
0000
0011
0000
0000
0000
0000
0000
0000
0000
,
0010
0000
0000
0000
0000
0000
0000
0000
0000
0000
0000
0000
1100
0000
0000
0000
0000
0000
0000
0000
0001
0000
0000
0000
0010
0000
0000
0000
0000
0000
0000
0000
0001
0000
0000
0000
0100
0000
0000
0000
1000
0000
0000
0000
0000
0000
0000
0000
0000
0000
0000
0000
0001
0000
0000
0000
0010
0000
0000
0000
1000
0000
0000
0020
1000
0000
0000
0000
0000
0000
0000
0000
0000
0000
0000
0000
0101
0000
0000
0000
0000
0000
0000
0000
1000
0000
0000
0000
0000
0000
0000
0000
1000
0000
0000
0000
0001
0000
0000
0000
0000
0000
0000
0000
1000
0000
0000
0000
0000
0000
0000
0000
0000
0000
0000
0000
1101
0000
0000
0000
1000
0000
0000
0000
0000
0000
0000
0030
0000
0000
0000
0000
0000
0000
0000
0000
0000
0000
0000
0000
0001
0000
0000
0000
1000
0000
0000
0000
1000
0000
0000
0000
0000
0000
0000
0000
0000
0000
0000
0000
1011
0000
0000
0000
0000
0000
0000
0000
1000
0000
0000
0000
0000
0000
0000
0000
0000
0000
0000
0000
1011
0000
0000
0000
0000
0000
0000
0000
1100
0000
0000
0000
,
0000
1000
0011
0000
0000
1000
1000
0101
0000
0000
1000
0000
1001
0100
0000
0000
1000
0011
0000
1000
0000
0000
0010
0000
0000
1000
0010
0000
0000
0000
1000
0100
0000
0000
1000
0000
0000
0000
0000
1000
0000
0000
0010
0100
0000
1000
0010
0000
,
0000
0000
1100
1000
0000
0000
0010
0000
1100
0000
0000
0000
0000
0000
0001
0000
0100
1001
1000
0000
0000
0011
0000
1000
0000
1001
0000
0010
0000
0000
1100
0001
0101
0000
0000
0101
0101
1000
0000
0000
0101
0011
0000
0000
0101
1000
0101
0000
,
0000
0000
0000
0000
0000
0000
0000
0000
0101
0000
0000
0000
0011
0000
0000
0000
0000
0000
0000
0000
1100
0000
0000
0000
0000
0000
0000
0000
0000
0000
0000
0000
0001
0000
0000
0000
0000
0000
0000
0000
1000
0000
0000
0000
1100
0000
0000
0000
0000
0000
0000
1101
0000
0000
0000
0000
0000
0000
0000
0000
0000
0000
0000
0000
0000
0000
0001
0000
0000
1110
0000
0000
0000
0000
0000
0000
0000
0000
0000
0000
0000
0000
0000
0000
0000
0000
0000
0000
0000
0000
0000
0000
1000
0000
0000
0000
0000
0000
0000
0000
0010
0000
0000
0000
0000
0000
0000
0000
0100
0000
0000
0000
1000
0000
0000
0000
0000
0000
0000
0000
0001
0000
0000
0000
0010
0000
0000
0000
0100
0000
0000
0000
0000
0000
0000
0000
0000
0000
0000
0000
1100
0000
0000
0000
0100
0000
0000
0000
0000
0000
0000
0000
0000
0000
0000
0000
0000
0000
0000
0000
0000
0000
0000
0000
0000
0000
0000
0000
0000
0000
0000
0000
0001
0000
0000
0000
1100
0000
0000
0000
0000
0000
0000
0000
0000
0000
0000
0000
0001
0000
0000
0000
,
0000
0000
0000
0000
0010
0000
0000
0000
1100
0000
0000
0000
0000
0000
0000
0000
0000
0000
0000
0000
0011
0000
0000
0000
0000
0000
0000
0000
0100
0000
0000
0000
0000
0000
0000
0000
1000
0000
0000
0000
0000
0000
0000
0000
0001
0000
0000
0000
0010
0000
0000
0000
0000
0000
0000
0000
1100
0000
0000
0000
0010
0000
0000
0000
0000
0000
0000
0000
0011
0000
0000
0000
0000
0000
0000
0000
0000
0000
0000
0000
1100
0010
0000
0000
0000
0000
0000
0000
0000
0000
0000
0000
0001
0000
0000
0000
0000
0000
0000
0010
0000
0000
0000
0000
1100
0000
0000
0000
0000
0000
0000
0000
0001
0000
0000
0000
0000
0000
0000
0000
0000
0000
0000
0010
0000
0000
0000
0000
0000
0000
0000
0000
0010
0000
0000
0000
1000
0000
0010
0000
0000
0000
0000
0000
0101
0000
0000
0000
0010
0000
0000
0000
0000
0000
0000
0000
0011
0000
0000
0010
0000
0000
0000
0000
1100
0000
0000
0000
0010
0000
0000
0010
0000
0000
0000
0000
0001
0000
0000
0000
0000
0000
0000
0000
0000
0000
0000
0000
1000
0000
0000
0000
,
0010
0000
0000
0000
0000
0000
0000
0000
0001
0000
0000
0000
0000
0000
0000
0010
0000
0000
0000
0000
0000
0000
0000
0000
0100
0000
0000
0000
0000
0000
0000
0000
0000
0000
0000
0000
0010
0000
0000
0000
0000
0000
0000
0000
0000
0000
0000
0000
0010
0000
0000
0010
0000
0000
0000
0000
0000
0000
0000
0000
0000
0000
0000
0000
0000
0000
0010
0000
0000
0000
0000
0000
0100
0000
0000
0000
1000
0000
0000
0000
0000
0010
0000
0000
0000
0000
0000
0000
0000
0000
0000
0000
0010
0000
0000
0000
0010
0000
0000
0000
0000
0000
0000
0000
0000
0000
0000
0000
1000
0000
0000
0000
0000
0000
0000
0000
0100
0010
0000
0000
0000
0000
0000
0000
0000
0000
0000
0000
0000
0000
0000
0000
1010
0000
0000
0000
0000
0000
0000
0000
0010
0000
0000
0000
0000
0000
0000
0010
0000
0000
0000
0000
0000
0000
0000
0000
0000
0000
0000
0000
1100
0000
0010
0000
0000
0000
0000
0000
0000
0000
0000
0000
0000
0000
0000
0000
0000
0000
0000
0000
0000
0000
0000
0010
0010
0000
0000
0000
1000
0000
0000
0000
,
0000
0000
0000
0000
0000
0000
0110
0000
0001
0000
0000
0000
0000
0000
0000
0000
1000
0000
0000
0000
0000
0000
0000
0000
0010
0000
0000
0000
0001
0000
0000
0000
0000
0000
0000
0000
1000
0000
0000
0000
0000
0000
0000
0000
0000
0010
0000
0000
0001
0000
0000
0000
0010
0000
0000
0000
0000
0000
0000
0000
1110
0000
0000
0000
0000
0000
0000
0000
0000
0000
0000
0000
0011
0000
0000
0000
0000
0000
0000
0000
0100
0010
0000
0000
0000
0000
0000
0000
1000
0000
0000
0000
0001
0000
0000
0000
0010
0000
0000
0000
0000
0000
0000
0000
0000
0000
0000
0000
0000
0000
0000
0000
0101
0000
0000
0000
0000
0010
0000
0000
1000
0000
0000
0000
0000
0000
0000
0000
0000
0000
0000
0000
0010
0000
0000
0000
1100
0000
0000
0000
0000
0000
0000
0000
0000
0000
0000
0000
0000
0000
0000
0000
0001
0010
0000
0000
0000
0000
0000
0000
0000
0000
0000
0000
1000
0000
0000
0000
0100
0000
0000
0000
0001
0000
0010
0000
0000
0000
0000
0000
0000
0000
0000
0000
0000
0000
0000
0000
1000
0010
0000
0000
,
0000
0000
0000
0000
0001
0000
0000
0000
0000
0000
0000
0000
0000
0000
0000
0000
0000
0000
0010
0000
0000
0001
0000
0000
0001
0000
0000
0000
1000
0000
0000
0000
0000
0010
0000
0000
0000
0000
0000
0000
0100
0000
0000
0000
0001
0001
0000
0000
0000
0000
0000
0000
0000
0000
0010
0000
0000
0000
0000
0000
1001
0000
0000
0000
0010
0000
0000
0000
0000
0010
0000
0000
0000
0000
0000
0000
0000
0000
0000
0000
0000
0001
0000
0000
1100
0000
0000
0000
0000
0000
0000
0000
0000
0000
0000
0000
0001
0000
0000
0000
0000
0000
0000
0000
0000
0000
0000
0000
0010
0000
0000
0001
0000
0000
0000
0000
1000
0000
0000
0000
0000
0000
0000
0000
0000
0000
0000
0000
0100
0000
0000
0000
0001
0000
0000
0000
0000
0000
0000
0000
1000
0000
0000
0000
0000
0000
0000
0001
0000
0000
0000
0000
0010
0000
0000
0000
0000
0000
0000
0000
0000
0000
0000
0000
1000
0000
0000
0000
0001
0000
0000
0000
0100
0000
0000
0000
0000
0000
0000
0000
0000
0000
0000
0001
0000
0000
0000
0000
0000
0000
0000
0000
,
0001
0000
0000
0000
0000
0000
0000
0000
0000
0000
0000
0000
1100
0000
0000
0000
0000
0000
0000
0000
0000
0000
0000
0000
0001
0000
0000
0000
0000
0000
0000
0000
0010
0000
0000
0000
0000
0000
0000
0000
0000
0000
1000
0000
1101
0000
0000
0000
0000
0000
0000
0000
0000
0000
0000
0000
0000
1000
0000
0000
0000
0000
0000
0000
0000
0000
0000
0000
0101
0000
0000
0000
0000
0000
0000
0000
0000
0000
1000
0000
0000
0000
0000
0000
0000
0000
0000
0000
0011
0000
0000
0000
0100
0000
0000
0000
0000
0000
0000
1000
0000
0000
0000
0000
0000
0000
0000
0000
0001
0000
0000
0000
0000
0000
1000
0000
0000
0000
0000
0000
0100
0000
0000
0000
0000
0000
0000
0000
0011
0000
0000
0000
0000
0000
0000
0000
0000
0000
1000
0000
0000
0000
0000
0000
0101
0000
0000
0000
0000
0000
0000
0000
0000
1000
0000
0000
0000
0000
0000
0000
0000
0000
0000
0000
0000
0000
0000
0000
0000
0000
0000
0000
0001
0000
0000
0000
1100
1000
0000
0000
0000
0000
0000
0000
0000
0000
0000
0000
0000
0000
0000
0000
,
0011
0000
0000
0000
0100
0000
1000
0000
0000
0000
0000
0000
0000
0000
0000
0000
0000
0000
0000
0000
0001
1000
0000
0000
0110
0000
0000
0000
0000
0000
0000
0000
0000
0000
0000
0000
0000
0000
0000
0000
0000
0000
1000
0000
0011
0000
0000
0000
0000
0000
0000
0000
0000
0000
0000
0000
0100
0000
0000
0000
1000
0000
0000
0000
0011
0000
0000
0000
0000
0000
0000
0000
0000
0000
0000
0000
0000
0000
1000
0000
0000
0000
0000
0000
0111
0000
0000
0000
0000
0000
0000
0000
0000
0000
0000
0000
0000
0000
0000
0000
0000
0000
1000
0000
0000
0000
0000
0000
0111
0000
0000
0000
0000
0000
0000
0000
0000
0000
0000
0000
0000
0000
0000
1000
0000
0000
0000
0000
0111
0000
0000
0000
0000
0000
0000
0000
0000
0000
1000
0000
0000
0000
0000
0000
0000
0000
0000
0000
0011
0000
0000
0000
0100
0000
0000
0000
0000
0000
0000
1000
0000
0000
0000
0000
0000
0000
0000
0000
0001
0000
0000
0000
0010
0000
1000
0000
0000
0000
0000
0000
0000
0000
0000
0000
0100
0000
0000
0000
0000
0000
0000
0000
,
0011
0000
0000
0000
0000
0000
0000
0000
0000
0001
0000
0000
1000
0000
0000
0000
0000
0000
0000
0000
0000
0000
0000
0000
0101
0000
0000
0000
0000
0000
0000
0000
0000
0001
0000
0000
0000
0000
0000
0000
0000
0000
0000
0000
0100
0000
0000
0000
0001
0000
0000
0000
0000
0000
0000
0000
0000
0000
0000
0000
0000
0000
0000
0000
0010
0000
0000
0000
1000
0001
0000
0000
0000
0000
0000
0000
0000
0000
0000
0000
0000
0000
0000
0000
0101
0000
0000
0000
0000
0000
0000
0000
0000
0000
0000
0000
1000
0000
0000
0000
0010
0000
0000
0000
0000
0001
0000
0000
0000
0000
0000
0000
0000
0000
0000
0000
0000
0000
0000
0000
1000
0000
0000
0000
0100
0000
0001
0000
0000
0000
0000
0000
0000
0000
0000
0000
0000
0000
0000
0000
0000
0000
0000
0000
1010
0000
0000
0000
0000
0000
0000
0000
0000
0000
0000
0000
0000
0000
0000
0000
0000
0000
0000
0000
0100
0000
0000
0000
1000
0000
0000
0000
0000
0000
0000
0000
0000
0000
0000
0000
0000
0000
0000
0000
0010
0000
0000
0000
0000
0000
0000
0000
,
0000
0000
0000
0000
1000
0000
0000
0000
0100
0000
0000
0000
0000
0000
0000
0000
0000
0000
0000
0000
0000
0000
0000
0000
1100
0000
0000
0000
0000
0000
0000
0000
0000
0000
0000
0000
0000
0000
0000
0000
0000
0000
0000
0000
0000
0000
0000
0000
0001
0000
0000
0000
0000
0000
0000
0000
0110
0000
0000
0000
1000
0000
0000
0000
0000
0000
0000
0000
0000
0000
0000
0000
0011
0000
0000
0000
0000
0000
0000
0000
1000
0000
0000
0000
0000
0000
0000
0000
0201
0000
0000
0000
0000
0000
0000
0000
0000
0000
0000
0000
0000
0000
0000
0000
0002
0000
0000
0000
0000
0000
0000
0000
0000
0000
0000
0000
0000
0000
0000
0000
0000
0000
0000
0000
0000
0000
0000
0000
2000
0000
0000
0000
0010
0000
0000
0000
0000
0000
0000
0000
0000
0000
0000
0000
0000
0000
0000
0000
0000
0000
0010
0000
0003
0000
0000
0000
0002
0000
0000
0000
0000
0000
0000
0000
0000
0000
0000
0000
0310
0000
0000
0000
0000
0000
0000
0000
3000
0000
0000
0000
0000
0000
0000
0000
0000
0000
0010
0000
0000
0000
0000
0000
,
0000
0000
0000
0010
0000
0000
0020
0000
0000
0000
0000
0000
0000
0000
0000
1000
0000
0000
0030
0000
0000
0010
0000
0000
1100
0000
0010
0000
0000
0100
1000
0000
0000
0010
1000
0000
0100
0000
0010
0000
0000
1100
0000
0000
0010
0000
0000
1100
,
0000
0000
0000
0000
0000
0000
0000
0000
0000
1100
0000
0000
0010
0000
0100
1000
0000
0000
0000
0010
1000
0003
0000
0001
0100
0010
0000
0000
1000
0000
0001
0000
0010
0100
0000
0001
0000
0000
1000
0000
0002
0010
0000
2200
0000
0000
0000
0000
,
0000
0000
0000
0000
0000
0000
3300
0000
0000
0000
0010
0000
1100
0000
0000
0010
0000
0000
1100
0000
0000
0010
0000
0003
0000
1100
0001
0000
0000
0010
0000
0000
0000
0000
1101
0000
0000
0011
0000
0000
0000
1100
0001
0000
0010
0100
0000
1001
,
0000
0000
0000
0000
0000
0000
0000
0000
0000
0000
0000
0000
0000
0000
0000
0000
0000
0000
0010
0000
0000
0000
0000
0000
1000
0000
0000
0000
0002
0000
0000
0000
0100
0000
0000
0000
0200
0000
0000
0000
0000
0000
0000
0000
0000
0000
0000
0000
0010
0000
0000
0000
0000
0000
0000
0000
2000
0000
0000
0000
0000
0000
0000
0000
0020
0000
0000
0000
0000
0000
0000
0000
0000
0000
0000
0000
0000
0000
0000
0000
0000
0000
0000
0000
0000
0000
0000
0000
0000
0000
0000
0000
0000
0000
0000
0000
0000
0000
0000
0000
0000
0000
0000
0000
0000
0000
0000
0000
0000
0000
0000
0000
0030
0000
0000
0000
0000
0000
0000
0000
0020
0000
0000
0000
0000
0000
0030
0000
0300
0000
0000
0000
0000
0000
0000
0000
0003
0000
0000
0000
3001
0000
0000
0000
0000
0000
0000
0000
0000
0000
0000
0000
0010
0000
0000
0000
0000
0000
0000
0000
1000
0000
0000
0000
0000
0000
0000
0000
0000
0000
0000
0000
0001
0000
0000
0000
0000
0000
0000
0000
1100
0000
0000
0000
0000
0000
0000
0000
0000
0000
0000
0000
,
0011
0000
0000
0000
0000
0000
0000
0000
0000
0000
0000
0000
1100
0000
0000
0000
0000
0000
0000
0000
0011
0000
0000
0000
0000
0000
0000
0000
0000
0000
0000
0000
0000
0000
0000
0000
0000
0000
0000
0000
1000
0000
0000
0000
0001
0000
0000
0000
0000
0000
0000
0000
0010
0000
0000
0000
0001
0000
0000
0000
0011
0000
0000
0000
1100
0000
0000
0000
0001
0000
0000
0000
0010
0000
0000
0000
0000
0000
0000
0000
0010
0000
0000
0000
0001
0000
0000
0000
0011
0000
0000
0000
1000
0000
0000
0000
0000
0000
0000
0000
0000
0000
0010
0000
0011
0000
0000
0000
0000
0000
0000
0000
1100
0000
0010
0000
0000
0000
0000
0000
0000
0000
0000
0000
0001
0000
0000
0000
0000
0000
0000
0000
0001
0000
0000
0000
0010
0000
0010
0000
1100
0000
0000
0000
1100
0000
0000
0000
0000
0000
0000
0000
0000
0000
0000
0000
0011
0000
0000
0000
0000
0000
0000
0000
1100
0000
0000
0000
0000
0000
0000
0000
1100
0000
0000
0000
0001
0000
0000
0000
1100
0000
0000
0000
0000
0000
0000
0000
0000
0000
0000
0000
,
0011
0000
0000
0000
1110
0000
0000
0000
0000
0000
0000
0000
0000
0000
0000
0000
0001
0000
0000
0000
0011
0000
0000
0000
0000
0000
0000
0000
0010
0000
0010
0000
1100
0000
0000
0000
0000
0000
0000
0000
0000
0000
0000
0000
0011
0000
0000
0000
0000
0000
0000
0000
0000
0000
0010
0000
1000
0000
0000
0000
0101
0000
0000
0000
0011
0000
0010
0000
0000
0000
0000
0000
0000
0000
0000
0000
0000
0000
0000
0000
0111
0000
0000
0000
1100
0000
0000
0000
0011
0000
0000
0000
0000
0000
0000
0000
1100
0000
0000
0000
0000
0000
0000
0000
0011
0000
0000
0000
1000
0000
0000
0000
0111
0000
0000
0000
0000
0000
0000
0000
0011
0000
0000
0000
1100
0000
0000
0000
0000
0000
0000
0000
0000
0000
0000
0000
0000
0000
0000
0000
1100
0000
0000
0000
0010
0000
0000
0000
1001
0000
0000
0000
0100
0000
0000
0000
0010
0000
0000
0000
0001
0000
0000
0000
0000
0000
0000
0000
0110
0000
0000
0000
1000
0000
0000
0000
0000
0000
0000
0000
0011
0000
0000
0000
0000
0000
0000
0000
0010
0000
0000
0000
,
1000
0000
0000
0000
0000
0000
0010
0000
0000
0000
0000
0000
0001
0000
0000
0000
0000
0000
0000
0000
1001
0000
0000
0000
0000
0000
0000
0000
0000
0000
0010
0000
0000
0000
0000
0000
0000
0000
0000
0000
1000
0000
0000
0000
0001
0000
0000
0000
0010
0000
0000
0000
0000
0000
0000
0000
0000
0000
0000
0000
0001
0000
0000
0000
1000
0000
0000
0000
0000
0000
0000
0000
0111
0000
0000
0000
0000
0000
0000
0000
0000
0000
0000
0000
1000
0000
0000
0000
0000
0000
0000
0000
0111
0000
0000
0000
1000
0000
0000
0000
1000
0000
0000
0000
0001
0000
0000
0000
0000
0000
0000
0000
0110
0000
0000
0000
0000
0000
0000
0000
1000
0000
0000
0000
0111
0000
0000
0000
0000
0000
0000
0000
0000
0000
0000
0000
0001
0000
1000
0000
0110
0000
0000
0000
0000
0000
0000
0000
0000
0000
1000
0000
0000
0000
0000
0000
0101
0000
0000
0000
0000
0000
0000
0000
0000
0000
0000
0000
0000
0000
0000
0000
0111
0000
1000
0000
0000
0000
0000
0000
0000
0000
0000
0000
0000
0000
0000
0000
0000
0000
0000
0000
,
1111
0000
0000
0000
0000
0000
0000
0000
0000
0000
0000
0000
1001
0000
0000
0000
0110
0000
0000
0000
0000
0000
0000
0000
0000
0000
0000
0000
0000
0000
1000
0000
0111
0000
0000
0000
0000
0000
0000
0000
0000
0000
0000
0000
0000
0000
0000
0000
0000
0000
0000
0000
0111
0000
1000
0000
0000
0000
0000
0000
1000
0000
0000
0000
0001
0000
0000
0000
0101
0000
0000
0000
0110
0000
0000
0000
0000
0000
0000
0000
0000
0000
0000
0000
1000
0000
0000
0000
0111
0000
0000
0000
0011
0000
0000
0000
1000
0000
0000
0000
0000
0000
0000
0000
0001
0000
0000
0000
0111
0000
0000
0000
0000
0000
1000
0000
0000
0000
0000
0000
0100
0000
0000
0000
0001
0000
0000
0000
0110
0000
0000
0000
1000
0000
0000
0000
0000
0000
0000
0000
0111
0000
0000
0000
0010
0000
0000
0000
0000
0000
1000
0000
0000
0000
0000
0000
0000
0000
0000
0000
0001
0000
0000
0000
1110
0000
0000
0000
1000
0000
0000
0000
0000
0000
0000
0000
0000
0000
0000
0000
0101
0000
0000
0000
1010
0000
1000
0000
0000
0000
0000
0000
,
0000
0000
0000
0000
0000
0000
1000
0000
1001
0000
0000
0000
0000
0000
0000
0000
0110
0000
0000
0000
0000
0000
0000
0000
1001
0000
0000
0000
0111
0000
0000
0000
0010
0000
0000
0000
0000
0000
0000
0000
0000
0000
0000
0000
0000
0000
0000
0000
0111
0000
0000
0000
0000
0000
0000
0000
0000
0000
0000
0000
1000
0000
0000
0000
0011
0000
0000
0000
0100
0000
0000
0000
0011
0000
0000
0000
0000
0000
0000
0000
1101
0000
0000
0000
0010
0000
0000
0000
0000
0000
0000
0000
0010
0000
0000
0000
0000
0000
0000
0000
1100
0000
0000
0000
0000
0000
0000
0000
0010
0000
0000
0000
0000
0000
0001
0000
0000
0000
0000
0000
1100
0000
0000
0000
0010
0000
0000
0000
0000
0000
0000
0000
0001
0000
0000
0000
0000
0000
0000
0000
0000
0000
0000
0000
0000
0000
0000
0000
0000
0000
0000
0000
0000
0000
0000
0000
0011
0000
0000
0000
0000
0000
0000
0000
0000
0000
0000
0000
1101
0000
0000
0000
0000
0000
0000
0000
0000
0000
0000
0000
0110
0000
0000
0000
0000
0000
0001
0000
1100
0000
0000
0000
,
0000
0000
0000
0000
0000
0000
0001
0000
0010
0000
0000
0000
0001
0000
0000
0000
1100
0000
0000
0000
0000
0000
0000
0000
0000
0000
0000
0000
1111
0000
0001
0000
0000
0000
0000
0000
0000
0000
0000
0000
1100
0000
0001
0000
0001
0000
0000
0000
0000
0000
0000
0000
1100
0000
0000
0000
0000
0000
0000
0000
0000
0000
0000
0000
0000
0000
0001
0000
0101
0000
0000
0000
1100
0000
0000
0000
1000
0000
0001
0000
0000
0000
0000
0000
0011
0000
0000
0000
0000
0000
0000
0000
1110
0000
0000
0000
0001
0000
0000
0000
0000
0000
0000
0000
0010
0000
0000
0000
1110
0000
0000
0000
0000
0000
0001
0000
0000
0000
0000
0000
0000
0000
0000
0000
0020
0000
0000
0000
0000
0000
0000
0000
0001
0000
0000
0000
0000
0000
0000
0000
0000
0000
0000
0000
0000
0000
0000
0000
1000
0000
0000
0000
0000
0000
0000
0000
0000
0000
0000
0000
0000
0000
0000
0000
1100
0000
0000
0000
0000
0000
0000
0000
0030
0000
0001
0000
0000
0000
0000
0000
0000
0000
0000
0000
1100
0000
0000
0000
0000
0000
0000
0000
,
0000
0000
0000
0000
0010
0000
0000
0000
0000
0000
0000
0000
1000
0000
0000
0000
0100
0000
0000
0000
0000
0000
0000
0000
0011
0000
0000
0000
0000
0000
0000
0000
0000
0000
0000
0000
1100
0000
0000
0000
0000
0000
0000
0000
0000
0000
0000
0000
0010
0000
0000
0000
0000
0000
0000
0000
0000
0000
0000
0000
0000
0000
0000
0000
0000
0000
0000
0000
1100
0000
0000
0000
0001
0000
0000
0000
0000
0000
0000
0000
0010
0000
0000
0000
0000
0000
0000
0000
1101
0000
0000
0000
0000
0000
0000
0000
0100
0000
0000
0000
0010
0000
0000
0000
1000
0000
0000
0000
1101
0000
0000
0000
0011
0000
0000
0000
0000
0000
0000
0000
1110
0000
0000
0000
0000
0000
0000
0000
0000
0000
0000
0000
1100
0000
0000
0000
0000
0000
0000
0000
0000
0000
0000
0000
0011
0000
0000
0000
0000
0000
0001
0000
1100
0000
0000
0000
0000
0000
0000
0000
0011
0000
0000
0000
0100
0000
0000
0000
1000
0000
0000
0000
0100
0000
0000
0000
0010
0000
0000
0000
0000
0000
0000
0000
1111
0000
0000
0000
0000
0000
0000
0000
,
0001
0000
0000
0000
0010
0000
0000
0000
0100
0000
0000
0000
1101
0000
0000
0000
1000
0000
0000
0000
0011
0000
0000
0000
0010
0000
0000
0000
0000
0000
0000
0000
1000
0000
0000
0000
1100
0000
0000
0000
0000
0000
0000
0000
0011
0000
0000
0000
0001
0000
0000
0000
1000
0000
0000
0000
1100
0000
0000
0000
0000
0000
0000
0000
0000
0000
0000
0000
0011
0000
0000
0000
0000
0000
0000
0000
0000
0000
0000
0000
1100
0000
0000
0000
0001
0000
0000
0000
0000
0000
0000
0000
0000
0000
0000
0000
1100
0000
0000
0000
0010
0000
0000
0000
0000
0000
0000
0000
0000
0000
0000
0000
1100
0000
0000
0000
0000
0000
0000
0000
0010
0000
0000
0000
0000
0000
0001
0000
0000
0000
0000
0000
1100
0000
0000
0000
0002
0000
0000
0000
0000
0000
0000
0000
0010
0000
0000
0000
0000
0000
0000
0000
0000
0000
0000
0000
1100
0000
0000
0000
0000
0000
0000
0000
0000
0000
0000
0000
0010
0000
0000
0000
0000
0000
0000
0000
0100
0000
0000
0000
1000
0000
0000
0000
0000
0000
0000
0000
0003
0000
0000
0000
,
0010
0000
0000
0000
0000
0000
0000
0000
0000
0000
0000
0000
0100
0000
0000
0000
0011
0000
1000
0000
0000
0000
0000
0000
0000
0000
0000
0000
0000
0000
0000
0000
0100
0000
0000
0000
0011
0000
0000
0000
1100
0000
0000
0000
0000
0000
0000
0000
0000
0000
0000
0000
0010
0000
1000
0000
0101
0000
0000
0000
0000
0000
0000
0000
1100
0000
0000
0000
0001
0000
0000
0000
0010
0000
0000
0000
0100
0000
0000
0000
0000
0000
0000
0000
0000
0000
0000
0000
1100
0000
0000
0000
0001
0000
0000
0000
1010
0000
0000
0000
0100
0000
0000
0000
0000
0000
0000
0000
0000
0000
0000
0000
1100
0000
0000
0000
0011
0000
0000
0000
0010
0000
0000
0000
0000
0000
0000
0000
1100
0000
0000
0000
0011
0000
0000
0000
1110
0000
0000
0000
0000
0000
0000
0000
0010
0000
0000
0000
1001
0000
0000
0000
0000
0000
0000
0000
0000
0000
0000
0000
0011
0000
0000
0000
0000
0000
0000
0000
1100
0000
0000
0000
1000
0000
0000
0000
0001
0000
0000
0000
0110
0000
0000
0000
0000
0000
0000
0000
1110
0000
0000
0000
,
0101
0000
0000
0000
0000
0000
0000
0000
1000
0000
0000
0000
0000
0000
0000
0000
0000
0000
0000
0000
1101
0000
0000
0000
0010
0000
0000
0000
0000
0000
0000
0000
0000
0000
0000
0000
0000
0000
0000
0000
1100
0000
0000
0000
0001
0000
0000
0000
0000
0000
0000
0000
0000
0000
0000
0000
0000
0000
0000
0000
1100
0000
0000
0000
0001
0000
0000
0000
0000
0000
0000
0000
0010
0000
0000
0000
0000
0000
0000
0000
0001
0000
0000
0000
1100
0000
0000
0000
0000
0000
0000
0000
0000
0000
0000
0000
0000
0000
0000
0000
0000
0000
0000
0000
1101
0000
0000
0000
0010
0000
0000
0000
0000
0000
0000
0000
0000
0000
0000
0000
1101
0000
0000
0000
1000
0000
0000
0000
0000
0000
0000
0000
0000
0000
0000
0000
0000
0000
0000
0000
1001
0000
0000
0000
0110
0000
0000
0000
1000
0000
0000
0000
0000
0000
0000
0000
0000
0000
0000
0000
1000
0000
0000
0000
0000
0000
0000
0000
1101
0000
0000
0000
0000
0000
0000
0000
0000
0000
0000
0000
1000
0000
0000
0000
0000
0000
0010
0000
1101
0000
0000
0000
,
0000
0000
0000
0000
0000
0000
0000
0000
0000
0000
0000
0000
1001
0000
0000
0000
0000
0000
0000
0000
0000
0000
0000
0000
0000
0000
0000
0000
1000
0000
0000
0000
0001
0000
0000
0000
1000
0000
0000
0000
1000
0000
0100
0000
0000
0000
0000
0000
0000
0000
0000
0000
0011
0000
0000
0000
0000
0000
0000
0000
1000
0000
0000
0000
0000
0000
0000
0000
0000
0000
0000
0000
0011
0000
0000
0000
0000
0000
0100
0000
1000
0000
0000
0000
0000
0000
0000
0000
0000
0000
0000
0000
1011
0000
0000
0000
0000
0000
0000
0000
1000
0000
0000
0000
0000
0000
0000
0000
1000
0000
0000
0000
0011
0000
0000
0000
0000
0000
0000
0000
0100
0000
0000
0000
1000
0000
0000
0000
0000
0000
0000
0000
0011
0000
0000
0000
0000
0000
0000
0000
0000
0000
0000
0000
1000
0000
0000
0000
0000
0000
0000
0000
0101
0000
0000
0000
0011
0000
0000
0000
0000
0000
0000
0000
0000
0000
0000
0000
0101
0000
0000
0000
0000
0000
0000
0000
0000
0000
0000
0000
1000
0000
0000
0000
0000
0000
0010
0000
0101
0000
0000
0000
,
0000
0000
0000
0000
0000
0000
0000
0000
0000
0000
0000
0000
0101
0000
0000
0000
0000
0000
0010
0000
1000
0000
0000
0000
0000
0000
0000
0000
0001
0000
0000
0000
0000
0000
0000
0000
1000
0000
0000
0000
0110
0000
0000
0000
0000
0000
0000
0000
1001
0000
0000
0000
0000
0000
0000
0000
0110
0000
0000
0000
0000
0000
0000
0000
0000
0000
0000
0000
1001
0000
0000
0000
0000
0000
0000
0000
0110
0000
0000
0000
0100
0000
0000
0000
0001
0000
0000
0000
1000
0000
0000
0000
0000
0000
0000
0000
0110
0000
0000
0000
0000
0000
0000
0000
1001
0000
0000
0000
0000
0000
0000
0000
0000
0000
0000
0000
0110
0000
0000
0000
0000
0000
0000
0000
1001
0000
0000
0000
0000
0000
0000
0000
0000
0000
0000
0000
0110
0000
0000
0000
0110
0000
0000
0000
0000
0000
0000
0000
0000
0000
0000
0000
0000
0000
0000
0000
0010
0000
0000
0000
0100
0000
0000
0000
0000
0000
0000
0000
0000
0000
0000
0000
0000
0000
0000
0000
1000
0000
0000
0000
0000
0000
0000
0000
0000
0000
0000
0000
0000
0000
0000
0000
,
0000
0100
0001
0010
1000
0000
0101
0000
0000
0000
0100
1000
0000
0000
0001
0001
0000
0010
1100
0000
0000
0000
0011
0000
0000
1100
0000
0000
0011
0000
0000
1100
0000
0000
0000
0001
0000
0000
0102
0000
0000
0000
0000
0000
0000
0000
0000
0100
,
0000
0000
0100
0000
0000
0000
0000
0100
0000
0000
0000
0000
0000
0000
0000
0000
1000
0000
0000
0000
1000
0003
0100
0000
0000
1100
0000
0000
0000
0000
1000
0000
0010
0000
0000
0000
0000
0111
0000
0000
0000
0000
0111
0000
0000
0000
0010
0101
,
0000
0000
0001
0000
0110
0000
0000
0010
0000
0000
0000
0000
0010
1000
0101
0000
0000
0000
0000
0000
0000
0101
0000
0000
0010
0100
1000
0000
0000
0011
0000
0000
1100
0000
0000
0011
0000
0000
0000
0000
0000
1100
0000
0001
0000
0010
1100
0000
,
0000
0000
0000
0011
0000
1100
0000
0000
0000
0001
0000
0000
0000
0010
1100
0000
0000
0011
0000
1000
0000
0110
0000
0001
0010
0010
1100
0000
0000
0011
0000
0000
0000
0000
1101
0010
0000
0011
0000
0010
1100
0000
0000
0011
0010
0000
0000
0000
,
0110
1001
0000
0000
0010
0000
0010
1101
0000
0010
1010
0100
0001
0010
0010
0000
0100
1000
0011
0000
0010
0000
1100
0000
0011
0000
0000
0011
0000
0110
1000
0000
0001
0010
0000
1100
0000
0000
0011
0000
0010
1100
0000
0010
0001
0010
0000
0010
,
1100
0000
0000
0001
0000
0010
0000
0000
0000
0101
0010
1000
0000
0010
0011
1100
0000
0000
0000
0011
0010
0000
1100
0000
0010
0011
0000
0000
1111
0000
0000
0000
0000
0001
0010
0000
1100
0000
0010
0001
0010
1100
0000
0010
0000
0001
0010
0010
,
1100
0000
0000
0001
0000
0010
0001
0000
1000
0110
0000
0001
0010
0000
0000
1110
0001
0010
0000
0000
1010
0100
0000
0011
0010
0000
1100
0000
0000
0010
0000
0011
0000
1000
0110
0000
0001
0000
0000
0010
0000
0100
1101
0000
0000
1111
0000
1100
,
0000
0100
1010
0000
0011
0000
1110
1100
0000
0000
0001
0000
1111
0010
0000
1100
0000
0010
1101
0010
0000
0010
1100
0000
0000
0011
0000
0010
1101
0000
0000
0010
0000
0001
0000
0010
1010
0000
0101
0000
0000
1000
0010
0000
0000
0001
0010
0000
,
0000
0000
0000
0000
0010
0001
1100
0000
0010
0000
0100
1111
0000
0000
1010
0000
1111
0000
0000
1110
1100
0001
0010
0010
0100
1100
0000
0011
0000
0010
1000
0100
0001
0010
0000
0000
0010
0000
0101
1000
0001
0000
0010
0000
0000
1100
0000
0001
,
0000
0000
0000
1000
0000
0000
0000
0101
0000
0001
0010
1100
0000
0000
0000
0011
0000
0000
1000
0000
0000
0000
0000
0001
1000
0100
0001
0000
0000
0000
0000
0101
1000
0000
0000
0000
0001
0110
0000
0000
1000
0000
0101
0000
0000
0000
0000
0001
,
0000
0000
0000
0000
0000
0011
0000
1000
0000
0000
0011
0000
0000
1100
0000
0011
0000
0000
1100
0000
0000
0001
0010
0000
0100
1000
0001
0000
0010
0000
0000
0001
0000
1100
0000
0000
0011
0000
1100
0010
0000
1111
0000
0011
1100
1100
0011
0000
,
0001
0000
0010
0101
0000
0000
0000
1100
0001
0000
0000
0001
0100
1000
0000
0001
0010
0000
0000
1100
0001
0010
0100
1000
0000
0000
0011
1100
0000
0000
0011
0000
1100
0000
0000
0001
0010
0000
0000
1100
0001
0000
0000
0000
0000
1001
0100
0000
,
0000
0111
1000
1001
0001
0010
0011
1100
1100
0011
0001
0000
1110
0000
1100
0011
0011
1100
1000
0100
0001
0000
0001
0000
0001
1100
0000
0000
0000
0000
1101
0000
0011
0000
0000
1100
0000
0000
0001
0010
1000
0000
0100
0000
0001
0000
0000
0000
,
0011
0000
1100
0000
0000
0011
0000
1100
0000
0000
0001
0000
0000
1100
0000
0000
0001
0000
0000
0000
0000
1101
0000
0000
0000
0011
0000
1000
0100
0000
0000
0001
0000
0000
0000
0000
1101
0000
0000
0011
0000
1100
0000
0000
0000
0000
0011
1100
,
0000
0000
0001
0000
0000
0000
0001
1100
0001
0011
1110
0100
0111
0000
0011
0000
1000
0100
0111
0000
0001
0000
0111
0000
0000
0000
0111
0111
0000
0000
0000
0000
0111
0000
0000
1000
0111
0000
0000
0000
0000
0000
0000
0001
0000
0000
0011
0100
,
0000
0000
0000
0001
0000
0110
1000
0111
0000
0111
0000
0111
0000
1000
0011
0111
0000
0000
0000
0111
0111
0000
0000
0000
0111
0000
1000
0000
0000
0011
0000
0000
1100
0000
0011
0000
0000
1100
0000
0000
0011
0000
0000
0100
0000
1001
0000
0000
,
0011
0000
1100
0000
0000
0011
0000
1100
0000
0000
0011
0000
0000
0000
1100
0001
0000
0000
0000
0000
0000
0000
0001
1100
0000
0001
0010
0000
1101
0110
0000
0001
0100
0011
0000
1100
0000
0111
0001
0000
0000
0011
1111
0100
0000
0000
0111
0010
,
0000
1000
0101
0110
0001
0000
0000
0000
0111
0000
0000
1101
0000
0001
0010
0000
1100
0000
0000
0011
0000
0000
1100
0000
0000
1001
0000
0100
0001
0011
1010
0100
1100
0000
0011
0011
0000
1100
0000
0001
0011
0000
0000
1100
0000
1000
0001
0000
,
0000
0000
0000
0000
0000
1101
0000
0000
0011
0000
1000
0100
1100
0001
0011
0010
1000
1100
0100
0001
0001
0010
0000
0000
1101
0000
0000
0000
0000
0000
0101
1000
0000
0000
0000
0001
0000
0110
0000
0000
0000
0000
0101
0000
0000
0000
0000
0000
,
1101
0000
0000
0000
0000
0101
0101
1000
0000
0000
0000
0101
0101
0000
0000
1101
0101
0000
0000
0000
0000
1101
0000
0101
0000
0101
0110
1000
0000
0001
0110
1101
0000
0001
0010
0000
0100
0000
0000
0011
0000
1100
0000
0000
0001
0000
0010
1100
,
0000
0000
0001
0010
0000
0000
1100
0000
0000
0011
0000
0100
1101
0000
0000
0001
0000
0100
0000
0000
0000
1101
0000
0000
0000
1101
0000
0001
0000
0000
0101
1000
0000
0001
0100
0001
0000
0000
0000
1000
0000
0100
0001
0010
0000
0100
1000
0000
,
0000
0011
0000
0100
1000
0000
0000
0011
0000
0000
1000
0000
0100
0000
0001
0010
0000
1100
0000
0000
0001
0000
0000
0100
0000
1000
0000
0001
0000
0000
0011
0000
0000
1100
0000
0000
0011
0000
1100
0000
0000
0001
0000
0000
1000
0000
0101
0000
,
0000
0011
0000
0000
1100
0010
0000
0011
0000
1100
0000
0111
0000
0000
0011
0000
0000
1101
0000
0011
0001
1100
0001
0001
0010
1110
0000
0000
0001
0010
0000
0000
1100
0000
0000
0011
0000
0000
0000
0000
0000
0000
0000
1111
0000
1000
0001
0110
,
0110
1000
0000
0101
0000
0000
1000
0100
0000
0000
0011
1000
0100
0011
0000
0000
1100
0000
0000
0001
0000
0001
0000
0010
1100
0000
0001
0000
0010
1100
0000
0011
0000
0001
1100
1100
0011
0000
0000
1011
0000
1101
0000
0011
0001
0000
1000
0000
,
0000
0011
0000
1100
0000
0000
0011
1001
1000
0100
0000
0011
0001
1000
1100
0000
0001
0011
0000
1000
1100
0000
0000
0000
0000
0011
0000
1100
0000
0100
0011
0000
1100
0000
0000
0111
0000
1100
0000
0100
0011
0000
0000
1100
0000
0000
0000
0001
,
0000
0100
0000
1101
0000
0000
0000
0011
0100
0000
1100
0000
0011
0000
0010
1100
0011
0000
0010
0000
1100
0000
0000
0011
0000
1000
0010
0000
0001
0000
0010
1000
0000
0101
0010
0000
0011
0000
0000
1100
0000
0001
0010
0000
1100
0000
0000
1011
,
0000
1000
0100
1000
0011
0000
1000
0100
1000
0000
0000
0011
1000
0100
0000
0000
0011
0000
0000
0001
0100
1000
0000
0001
0001
0000
0000
1100
0000
0001
0011
0000
1100
0000
0000
0011
0000
1100
0000
0000
0011
0100
0000
1100
0000
0111
0000
0000
,
1100
0000
0100
0000
0001
0000
0000
0000
0000
0000
0000
0000
0000
0000
0010
0000
0001
0100
0000
0010
0000
0000
0101
1000
0010
0000
0000
0000
0000
0000
0000
1000
0000
0000
0000
0000
0000
0000
0000
0000
0000
0101
0000
0010
0000
0001
0100
0000
,
0010
0000
0000
1000
0000
0000
0000
0000
0000
0000
0000
0000
0000
0000
0001
0000
0100
0000
0000
0001
0110
0000
0000
0000
1000
0010
0000
0000
0000
0000
0010
0000
0000
0000
0000
0000
0000
0000
0101
0000
0000
0000
0101
0000
0000
0010
0000
1000
,
0000
0000
0010
0000
0000
0000
0000
0010
0000
0000
0000
0000
0000
0000
0101
0000
0000
0000
0000
0101
0000
0000
1010
0000
0000
0000
0000
0010
0000
0000
0000
0000
0010
0000
0000
0000
0000
0100
0000
0000
0000
0100
0001
0000
0010
0000
0101
0000
,
0000
0010
0000
0000
0000
0000
0000
0010
0000
0000
0000
0000
0010
0000
0000
0100
0001
0010
0000
0000
0000
1101
0010
0000
0000
0000
0000
1100
0001
0000
0000
0000
0000
0000
0000
0000
0000
0000
0000
0000
0000
0000
0000
0000
0000
0000
0000
0000
,
0010
0000
0000
0010
0000
0101
0000
0000
0000
0000
0000
0100
0001
0000
0000
0000
0000
0000
0000
0000
0000
0000
0000
0000
0000
0000
0000
0000
0000
0000
0000
0000
1000
0000
0000
0100
0000
0000
0020
0000
0000
0000
0000
0000
0000
0000
0000
0000
,
0000
0000
0000
0000
0000
0000
0000
0000
0000
0000
0000
0000
0000
0000
0000
0000
0030
0000
0000
0000
0000
0000
0000
0000
0000
0000
0000
0000
0000
0000
0000
0000
0000
0000
0000
0000
0000
0000
0000
0000
0000
0000
0000
0000
0000
0020
0000
0000
2202
0000
0000
0000
0000
0000
0000
0000
0000
0000
0000
0000
0000
0000
0000
0000
0000
0000
0000
0000
0000
0000
0000
0000
0000
0000
0000
0000
0000
0000
0000
0000
0000
0000
0000
0000
0000
0000
0000
0000
0000
0000
0000
0000
0000
0000
0000
0000
0000
0000
0000
0000
0000
0000
0000
0000
0000
0000
0000
0000
0000
0000
0000
0000
0000
0000
0000
0000
0000
0000
0000
0000
0000
0000
0000
0000
0000
0000
0000
0000
0000
0000
0000
0000
0000
0000
0000
0000
0000
0000
0000
0000
0000
0000
0000
0000
0000
0000
0000
0000
0000
0000
0000
0000
0000
0000
0000
0000
0000
0000
0000
0000
0000
0000
0000
0000
0000
0000
0000
0000
0000
0000
0000
0000
0000
0000
0000
0000
0000
0000
0000
0000
0000
0000
0000
0000
0000
0000
0000
0000
0000
0000
0000
0000
,
0000
0000
0000
0000
,
0000
0000
0000
0000
,
0000
0000
0000
0000
,
0000
0000
0000
0000
0000
0000
0000
0000
0000
0000
0000
0000
0000
0000
0000
0000
0000
0000
0000
0000
0000
0000
0000
0000
0000
0000
0000
0000
0000
0000
0000
0000
0000
0000
0000
0000
0000
0000
0000
0000
0000
0000
0000
0000
0000
0000
0030
0000
0000
0000
0000
0000
0000
0000
0000
0000
0000
0000
0000
0000
0000
0000
0000
0000
0000
0000
0000
0000
0000
0000
0000
0000
3000
0000
0000
0000
0303
0000
0000
0000
0000
0000
0000
0000
0000
0000
0000
0000
0000
0000
0000
0000
0000
0000
0000
0000
0000
0000
0000
0000
0000
0000
0000
0000
0000
0000
0000
0000
0000
0000
0000
0000
0000
0000
0000
0000
0000
0000
0000
0000
0000
0000
0000
0000
0000
0000
0000
0000
0000
0000
0000
0000
0000
0000
0000
0000
0000
0000
0000
0000
0000
0000
0000
0000
0000
0000
0000
0000
0000
0000
0000
0000
0000
0000
0000
0000
0000
0000
0000
0000
0000
0000
0000
0000
0000
0000
0000
0000
0000
0000
0000
0000
0000
0000
0000
0000
0000
0000
0000
0000
0000
0000
0000
0000
0000
0000
0000
0000
0000
0000
0000
0000
;

//---------------dance-single - hard(30)----------------
#NOTES:
     dance-single:
     hard(30):
     Hard:
     30:
     1.000,1.000,1.000,1.000,1.000,3329.000,1412.000,212.000,0.000,556.000:
1000
0100
0000
0000
0000
0000
0000
0000
0000
0000
0000
0000
0000
0000
0000
0000
0000
0000
0000
0000
0000
0000
0000
0000
0000
0000
0000
0000
0000
0000
0010
0001
0000
0000
0000
0000
0000
0000
0000
1100
0000
0000
0000
0011
0000
0000
0000
1000
0000
0000
0000
0011
0000
0000
0000
1100
0000
0000
0000
0001
0000
0000
0000
0000
,
0000
0101
0000
1000
0000
0011
0000
0000
0000
1100
0000
0001
0000
0010
0000
0000
0000
1000
0001
0000
0000
0000
0000
0000
0000
0011
0000
1000
0000
0000
0000
0111
0000
0000
0000
0000
0000
1011
0100
0000
0000
0000
0000
0011
0000
0000
0000
1100
0000
0000
0000
0000
0000
0011
0000
0100
1000
0000
0000
0001
0000
0010
0000
0000
,
0000
0000
0000
1101
0000
0000
0000
0011
0000
0000
0000
1100
0000
0011
0000
0000
0000
1000
0100
0000
0000
0000
0000
0011
0000
0000
1000
0001
0000
0000
0100
0000
0000
0000
0011
0000
1000
0100
0000
0001
0010
0000
0000
0000
1100
0000
0000
0001
0000
0000
0000
0110
1000
0000
0000
0000
0011
0100
0000
0000
0011
0000
1000
0000
,
0110
0000
0101
0000
0000
0110
1000
0000
0000
0000
0000
0000
0111
0000
0000
0000
0111
0000
0000
0000
1000
0000
0101
0010
0000
0000
1000
0000
0000
0000
0001
0000
0000
0000
0000
0000
1001
0000
0100
0000
0000
0000
0011
0000
0000
0000
1100
0000
0000
0001
0010
0000
1000
0100
0000
0000
0000
0000
0001
0000
0000
0000
0000
1110
,
0000
0000
0000
0000
0000
0011
0000
0000
0000
1100
0000
0000
0000
0011
0000
0000
0000
1100
0000
0000
0000
0000
0000
0000
0000
0011
0000
0000
0000
1101
0000
0000
0000
0011
0000
1000
0000
0000
0000
0000
0000
0011
0000
0000
0000
1000
0000
0000
0000
0001
0000
0110
0000
1001
0000
0000
0000
0000
0000
0111
0000
0000
0000
1000
,
0000
0001
0000
0010
0000
0000
1100
1000
0111
0000
0000
0001
0000
0000
1100
0001
0011
0000
0100
1000
0000
0000
0011
0000
0010
0000
1100
0000
0000
0011
0011
0000
0000
0000
1100
0000
0011
0000
0001
0000
0000
0010
0011
0000
0000
0000
1110
0001
0000
0000
0011
0000
0000
0000
1101
0000
0000
1001
0010
0100
0000
0000
0000
1100
,
0000
0001
0000
0000
0000
1101
0000
0000
1001
0100
0000
0000
0000
0100
0000
1001
0000
0000
0000
0001
0000
0100
0010
0000
0000
1000
0000
0101
0000
0010
0000
0000
0000
0101
0010
1000
0000
0000
0000
0010
0000
0011
0000
0000
0000
0000
0000
0001
0000
0010
0000
0000
0000
1100
0000
0001
0000
0010
0000
0100
0000
1000
0000
0011
,
0000
0000
0000
1100
0000
0000
0001
0000
0000
0000
0100
0000
1000
0000
0001
0000
0001
0000
0000
0000
1100
0000
0011
0000
0000
0000
1100
0000
0001
0000
0010
0000
1100
0000
0000
0000
0000
0010
0001
0000
1100
0000
0001
0000
0000
0000
0000
0001
0000
1100
0000
0001
0000
0010
0000
1100
0000
0000
0000
0011
0000
0010
0000
1100
,
0000
0000
0010
0011
0000
0000
1000
0000
0101
0000
0010
0000
0000
0000
0001
0000
1100
0010
0000
0000
0000
0000
0011
0000
0000
0000
1100
0000
0001
0010
0110
0000
1000
0000
0001
0010
0100
0000
1000
0000
0000
0001
0110
0000
0000
0000
0000
1000
0000
0101
0000
0011
0000
0000
0000
0000
0000
1001
0001
0000
0000
0100
0001
0011
,
0000
0000
0000
0100
0010
0001
0001
1000
0000
0000
0000
0000
0111
0000
0000
0000
1000
0000
0110
0000
0000
0000
0000
0000
1000
0000
0000
0000
0110
0000
0000
0000
0000
0000
0000
0000
1000
0000
0000
0000
0001
0000
0000
0000
0000
0010
0000
1100
0000
0101
0000
0000
1100
0010
0001
0000
1000
0100
0000
0010
1100
0001
0000
0000
,
1100
0000
0010
0000
0000
0000
0000
0000
1100
0000
0000
0000
0010
0000
0000
0000
1001
0011
0000
1000
0000
0000
0001
0001
0000
0010
1000
0000
0100
0000
0011
0000
0000
1100
1100
0000
0000
0000
0011
0001
1100
1100
0000
0000
0001
0000
0000
0000
1100
0000
0000
0000
0011
1001
0000
0000
1000
0010
0001
0001
0010
1000
0010
0000
,
1100
1100
1001
0000
0000
0000
0010
0000
1000
1001
0001
0000
0010
0000
0000
0000
0011
1001
0000
0100
0010
0000
1001
1000
0001
0000
0000
0100
0110
1000
1001
0000
0000
0000
0011
0110
0100
1000
0000
0000
0000
0011
1100
0000
0000
0100
0000
0001
0010
0000
0100
1100
0000
0001
0010
0010
0000
1100
0100
0000
0000
0010
0111
0000
,
1000
0100
0000
0000
0010
0001
0100
1000
0010
0100
0000
0100
0000
0001
0000
0011
0000
0000
0000
1100
0100
0000
0011
0010
0000
0100
1100
0000
0001
0000
0010
0000
1000
0100
0000
0001
0000
0010
0000
0000
0010
1100
0000
0000
0001
0010
0000
0000
0001
0000
1100
0000
0000
0010
0000
0000
0010
0000
0000
1000
0100
0001
0010
0000
,
1000
0100
0010
0000
0000
0011
0000
0000
0000
1100
0000
0010
0001
0010
0000
0000
1110
0000
0000
0000
0000
0000
0010
0000
0000
0000
0000
0000
1101
0000
0001
0010
0000
0000
1100
0100
0010
0000
0000
0011
0000
1100
1000
0000
0010
0011
0100
0000
1000
0100
0111
0000
0011
1100
0010
0000
1111
0000
0010
0000
1101
0011
0000
0011
,
0000
1001
0110
1001
1100
0000
0001
0011
0010
0001
0010
1100
0000
1001
0011
0011
0001
0000
1110
0000
1100
0011
0000
0011
0000
0011
0000
1111
0000
0011
0001
0000
0010
0000
1100
0011
0010
0010
1011
0000
0101
1001
0000
0110
0000
0000
1000
0001
0000
0111
0000
0000
0000
0000
1101
0000
0010
1100
0000
0000
0001
0001
0010
0110
,
1100
0000
0000
0000
0111
0010
0000
1100
0000
0000
1000
0001
0010
0010
0000
1100
0000
0000
1101
0010
0010
0000
0000
0000
1100
0000
0101
0010
0000
0000
0011
0000
1100
1000
0000
0010
0000
0000
0100
1011
0000
0100
0000
0110
0001
0000
0000
0000
0100
0000
1000
0000
0011
0000
0000
1100
0000
0011
0000
0000
0100
0000
0000
0000
,
0000
1101
0011
0000
1100
0111
0000
0000
0011
1111
0000
0000
0111
0000
1100
0000
1101
0011
0000
0001
0010
0000
1100
0101
0000
0011
0000
0011
0000
0000
0100
1100
0111
0000
0000
0011
0100
0000
1111
0000
0000
1000
0101
0000
0111
0000
0000
0000
1100
1100
0111
0000
0001
0011
0000
1000
0000
1100
0110
0001
0010
0000
1000
0100
,
0110
0000
1011
0010
0000
0000
1100
0011
0110
0000
0000
1001
0000
1000
0110
0001
0000
1000
0000
0000
0000
1000
0110
0000
0000
1101
0000
0000
0000
0010
0000
0001
1000
0100
0110
0000
0011
1000
0000
1000
0100
1100
0111
0010
0000
1000
0000
1100
0100
1010
0000
0011
0000
0000
1111
0000
1100
0011
0000
0000
1001
0100
0001
0001
,
0011
0100
1000
0000
0000
1011
0001
0000
0011
1000
0100
1101
0100
0011
0000
1000
0110
0000
0001
0101
0011
1100
0000
1100
0000
0100
0000
0000
0011
0000
0000
1100
0100
0000
1000
0011
0011
0000
0000
1100
0000
0000
0000
0011
0011
1000
0000
1000
1100
0100
0000
0010
0001
1000
0000
1100
0000
0000
0010
0001
0000
1001
0000
1110
,
0000
0100
1000
0011
0000
0000
0011
1000
0000
0100
1101
0000
0000
0000
0001
0100
1010
0000
1100
0100
0000
0001
1000
0110
0000
0001
0011
0000
0110
0000
1100
0000
0001
1010
0101
0000
0110
1101
0000
0010
0000
1100
0011
0100
0000
0011
1100
0000
1001
0100
0100
1000
0000
0000
0000
0000
1100
0000
0000
0010
0000
0000
0100
1000
,
0000
0000
0010
0000
0000
0100
0000
0001
0000
0000
0010
0000
0000
0011
0000
0001
0000
0010
0000
0011
0100
1000
0000
0000
0000
0011
0000
0000
0100
0001
1000
0000
0001
0000
1100
0000
0000
0011
0000
0011
1100
0000
1100
0000
0000
0011
0010
0000
1100
1100
0000
0011
0000
0001
0000
0000
1100
1100
0000
0010
0001
0001
0000
0000
,
1111
0000
0000
0000
1100
0001
0000
0000
0011
0000
0000
0000
1101
1100
0000
0011
0000
0001
1100
0000
0100
1011
0000
0001
0000
0000
1100
0000
0011
0000
1100
0011
0000
0000
1100
0000
0011
0000
1000
0101
0000
0011
0000
0010
0100
1001
0000
0000
0000
0011
0000
1101
1000
0000
0011
0001
0000
0010
1100
0000
0000
0000
1001
0000
,
0000
0001
1100
0000
0000
0000
1101
0000
0000
0000
0000
0000
1000
0101
0011
0000
1000
0011
0000
0101
0000
1100
0000
0000
0001
0000
0011
0010
0000
0000
1100
0000
1101
0000
0001
0000
0000
0000
0000
0000
0101
1000
1100
0001
0000
0011
0100
0000
1000
1100
0000
0000
0000
0011
0011
0000
0000
0000
1100
0000
0011
0000
0001
0000
,
0100
0000
1000
0000
1111
0000
0000
0000
0000
0011
0001
1100
1100
0000
0000
0000
0011
0000
1100
0000
1100
0000
0000
0010
0001
0000
1100
0000
0000
0001
0000
1111
0000
1000
0100
0011
0001
0000
1000
0010
0100
0000
1101
0000
0011
0000
0100
1000
0001
0000
0000
0000
0001
0000
1100
0011
0000
0001
0100
1100
1000
0001
0010
0000
,
0000
0011
1100
0000
0000
0000
1011
0100
0000
0000
0000
1100
0000
0000
0001
0001
0000
1000
0000
0000
0000
0101
0000
1000
1000
0001
0000
0010
0000
1011
0100
0000
0000
0000
1011
0000
0010
0001
1100
0000
0000
1100
0000
0000
0001
0000
0000
0000
0000
0000
1100
0001
0000
1101
0000
0011
0001
0010
0000
1100
0000
1100
0000
0000
,
0011
0000
0010
0000
1100
0000
0000
0000
0001
0011
0000
0000
1100
0000
1101
0000
0000
0010
0011
0000
0000
1000
1100
0100
0000
0000
0001
0011
0000
0001
0100
0001
0000
1100
0000
0001
0000
1000
0010
0000
0000
1000
0000
0010
0002
0000
0000
0000
0000
0110
0000
0000
0000
0000
0000
0000
0110
0000
0000
0100
0000
0000
0113
0000
,
2000
0000
0000
0000
0000
0110
0000
0000
0000
0000
0100
0000
0010
0000
0000
0000
0000
0010
0101
0000
0000
0000
0000
0101
0010
0000
0000
0000
0000
0000
0011
0000
0000
0000
0000
0000
0000
0111
0000
0000
0000
0000
0000
0000
0111
0000
0000
0000
0000
0000
0000
0111
0000
0000
0000
0000
0000
0000
0111
0000
0000
0000
0000
0000
,
0000
0111
0000
0000
0000
0000
0000
0000
0111
0000
0000
0000
0000
0000
0000
0111
0000
0000
0000
0000
0101
0010
0000
0000
3000
0000
0002
0000
0000
0000
0000
0000
0000
1100
0000
0000
0000
0000
0100
0000
0010
0000
0000
0000
0000
1110
0000
0000
0010
0000
0000
0000
0000
0000
0000
1100
0000
0000
0000
0010
0000
0000
0000
0000
,
1100
0000
0010
0000
0000
0000
1000
1100
0000
0000
0010
0000
0000
0000
1100
0000
0000
0003
0000
0010
0000
0000
0000
1000
0000
0000
0000
0012
0010
1000
0000
0010
0000
0000
0000
0000
0000
2000
0000
0100
0000
0003
0000
0000
0000
0000
0000
0000
0010
0000
0100
0000
0000
0000
0000
0110
0000
0000
0000
0000
0000
0110
0000
0000
,
0000
0000
0000
0000
0112
0000
0000
0000
3000
0000
0200
0000
0000
0000
0010
0000
0000
0000
0003
0000
0000
0010
2000
0000
0000
0010
0300
0000
0000
0000
0000
0000
0000
0000
0001
0000
0000
0000
0020
0000
0000
0001
3000
0000
0000
0000
0000
0000
0000
0000
0002
0000
1000
0000
0000
0000
0030
0000
0000
1000
0000
0000
0200
0000
,
0000
0000
0000
0000
0000
0000
0000
0000
0000
0000
0010
0000
0000
0000
0000
0000
0000
0000
0000
0010
2000
0000
0000
0000
0003
0000
0010
0000
0002
0000
0300
0000
0000
0010
0000
0000
0000
0000
0000
0010
0000
0000
0000
0000
0000
0000
0010
0000
3100
0000
0000
0000
0000
1100
0000
0000
0000
0000
0000
0000
1100
0000
0000
0000
,
0000
1100
0020
0100
0000
0000
0000
0000
1100
0000
0000
0000
0000
0000
1000
0000
0100
0000
0000
0000
0000
1000
0000
0100
0000
0000
0000
0000
0000
0000
1100
0000
0000
0000
0030
1000
0000
0100
0000
0000
0000
1000
0000
0010
0000
0100
0000
0000
0000
0010
0000
0000
0000
0000
0003
0000
0000
0010
1100
0100
0011
0000
0000
0000
,
0010
1101
0100
1010
0000
0000
0000
1100
0011
0000
0001
0000
0000
0000
0000
0110
0000
0000
1101
0000
1001
0011
0011
0000
0000
1100
0000
1100
0001
0000
0011
0010
1100
0000
0001
1100
0010
0000
1000
0100
0011
0000
0000
0000
0000
1000
0000
1100
0001
0000
0000
0001
0001
0010
0000
0000
0000
1100
0000
0000
0011
0000
0010
0000
,
0001
0000
1100
0022
0000
0200
0000
0000
0000
0000
0000
0000
0000
0000
0000
0000
0000
0000
0000
0000
0000
2000
0000
0000
0000
0000
0000
0000
0000
0000
0000
0000
0000
0000
0000
0000
0000
0000
0000
0000
0000
0000
0000
0000
0000
0000
0000
0000
0000
0033
0000
0000
0000
0000
0000
0000
0000
0000
0000
0001
3300
0000
0000
0000
,
0000
0000
0010
0000
0000
1100
1000
0000
0000
0000
0101
0000
0000
0000
0000
0011
0001
1100
0000
1100
0011
0010
0001
1000
0100
0000
1100
0000
0011
0000
0011
1100
0000
1000
0100
0011
0001
0000
0010
0000
1202
0000
0000
0000
0000
0000
0000
0000
0000
0010
0000
0000
1000
0000
0000
0000
0300
1010
0000
0000
0000
0000
0000
0000
,
0010
0000
0100
0000
1000
0000
0000
1010
0000
0000
0000
0000
0000
0000
1010
0100
0000
0000
0000
0000
2000
0010
0000
0000
0000
0000
0000
0000
0000
0000
0010
0000
0000
0000
0000
0010
0000
0003
0000
0000
3010
0000
0000
0010
0000
2000
0000
0000
0000
0010
0000
0000
0000
0000
0000
0200
0000
0010
0000
0000
0000
3000
0000
0002
,
0000
0000
1000
0000
0000
0300
0000
0000
0000
0000
0000
0020
0000
0000
0000
0000
0000
0003
0000
2000
0000
0000
0000
0000
0100
0000
0000
0030
0000
0000
0000
0200
0000
0000
0000
0000
0000
0000
0000
3002
0000
0000
0000
0000
0000
0000
0300
0000
0000
0000
0000
0000
0000
0000
0000
0000
0000
0000
0000
0000
0000
0000
0000
0000
,
0000
0000
0000
0000
0010
0000
1000
0100
0000
0010
0000
0000
0003
0000
1100
0000
0110
0000
0000
1000
0000
0100
1100
0000
0010
0001
0000
0000
0000
1101
0000
1000
0000
0000
0000
0000
0000
0000
0000
0001
0000
0000
0000
1001
0000
0100
0000
0000
0000
0000
0000
0000
0000
0001
1100
0000
0000
0000
0011
0000
0000
1011
0100
0100
,
1001
0010
0000
0000
0011
1100
0000
0000
0100
1011
0001
0000
1010
0000
0100
0000
0011
0000
0000
0001
1100
0000
0000
0010
0011
0001
0000
0100
0000
0000
0000
0111
0000
0000
2000
0000
0001
0000
0110
0000
0000
0000
0000
0111
0000
0000
0000
0101
3000
0000
0111
0000
0000
0000
2000
0000
0000
0111
0000
0000
0000
0000
0000
0001
,
0110
0000
0000
0000
0000
0000
0010
0101
0000
0000
0000
0000
0011
0100
0000
0000
0000
0000
0000
0111
0000
3000
0000
0002
0000
0000
0000
0000
0000
0000
0000
0000
0000
0000
0000
0110
0000
0000
0000
0020
0000
0000
0000
0003
1100
0000
0000
0000
0000
0000
0000
0000
0000
2000
0000
0000
0000
0000
0000
0030
0000
0200
0000
0000
,
0000
0000
0000
0000
0000
0000
0000
0000
0000
0000
3000
0000
0000
0000
0000
0000
0000
0000
0000
0000
0000
0000
0000
0000
0000
0000
0002
0000
0000
0000
0000
0000
0300
0000
0000
0000
0000
0000
0020
0000
1000
0000
0003
0000
0000
0000
0000
1000
0000
0000
0000
0000
0000
0100
2000
0000
0000
0000
0030
0000
0000
0100
0000
0000
,
0000
0000
0000
0000
0000
0000
0000
0000
0000
0200
0000
3010
0000
0000
0000
0000
0000
0000
0010
0000
0000
1000
0000
0012
0000
0300
0000
0000
0000
0000
0000
0000
0000
0000
0000
0000
0000
0000
0000
0000
1000
0000
0000
0020
0000
0000
1000
0003
0000
0000
0000
0000
0000
1000
0000
0000
0000
0200
0000
0000
1000
0000
0000
0000
,
0000
0000
1000
0000
0000
0000
0000
0000
0000
0000
0000
0000
0000
0000
0000
0000
0000
2330
0000
0000
0000
0000
0000
0000
0000
0101
0000
0000
0000
0002
0000
3000
0000
0000
0000
0000
0000
0000
0000
0000
0000
0000
0000
0000
0000
0000
0000
0020
0000
0000
0000
0000
0000
0003
0000
0000
0000
2000
0000
0000
0000
0030
0000
0000
,
0000
0100
0000
0000
0000
0000
0000
0000
3001
0000
0000
0000
0000
0000
0000
1000
0000
0010
0000
0000
0000
0010
1100
0001
0001
1110
0000
0111
0000
1000
0000
1100
0011
0000
1111
0000
0000
0000
1000
0011
0000
0100
1111
0000
0000
1001
0000
0010
0001
0000
1100
0000
1001
0100
0000
0000
0000
0000
0001
0000
0010
0000
1100
0200
,
0001
0000
0000
0000
0000
0000
0000
0001
0000
0000
0000
0000
0000
0001
0010
0000
0000
2000
0000
0000
0011
0000
0000
0300
0000
0000
0000
0001
0010
0000
0000
0000
0000
0000
0000
0011
0000
0000
0001
0000
0000
0000
0011
0000
0100
0000
0000
0000
0000
0000
0000
0002
0000
0000
0000
0110
0000
0000
0000
0000
0110
0000
0000
0000
,
0000
0000
0000
0110
0000
0000
0000
0000
0100
0000
0110
0000
0000
0220
0000
0000
0000
0000
0000
0000
0000
0000
0000
0000
0000
0000
0000
0000
0000
3000
0000
0000
0330
0000
0000
1000
0000
0100
0000
0010
0000
0000
0000
1000
0000
0010
0100
0000
0000
0000
1100
0000
0000
0010
0000
0000
0000
0000
0100
0000
0010
0000
0000
0000
,
0000
0110
0000
0000
0000
0000
0000
0010
0000
0100
0000
1000
1100
0000
0010
0010
0000
1103
0000
1102
0000
0010
0010
0000
0100
1000
0000
1100
0010
0010
1000
0000
0100
0000
0010
0000
0000
1003
1100
0000
0010
0001
0100
0010
1000
1100
0000
0010
0000
0011
0000
0000
1100
0000
0000
0010
0011
0000
0000
0000
0000
0000
0001
0000
,
0000
1000
0000
0010
0000
1001
0000
0100
1102
0010
0000
0110
1000
0000
0000
1100
0000
0000
0010
0010
1100
0000
0000
1100
0000
0000
0000
0000
1010
0000
0000
0000
0000
0000
0000
0000
1100
0000
1000
0000
0000
0010
0103
1100
0000
0000
0000
0000
0000
0011
0000
1101
0000
0010
0000
0100
0010
1000
0000
0011
0000
1100
0000
0000
,
1110
0002
0010
0000
0000
1000
1100
0000
0000
0010
0100
0000
0000
1110
0000
0000
0000
0000
1103
0000
0000
1011
0000
0000
0100
1100
0000
0000
0001
0000
1010
0100
0000
0000
0100
0000
1000
0000
1100
0000
0000
0001
0001
0010
0000
0000
1100
1102
0000
0000
0000
0010
0000
1100
0000
0000
0000
0000
0000
0010
0000
1000
0000
0000
,
1100
0000
0010
0000
0000
0010
0000
0000
1000
0100
0000
0000
1110
0000
0100
1010
0000
0000
0000
0000
1100
0010
0000
1113
0000
0000
1001
0000
0110
0000
1000
0110
0000
0000
0001
0010
1100
0000
1100
0000
0000
0001
0000
0010
0000
0000
1100
0100
1000
0000
0011
0011
0000
0000
1000
0001
0100
0000
0000
0001
0010
0000
0000
0001
,
1100
1100
0000
0011
0000
0000
1100
0000
0000
0000
0011
1000
1000
0100
0100
0011
0001
0000
1010
0100
0000
1100
0000
0011
0000
0010
1000
0100
0000
1100
0000
0011
0000
0000
0001
0000
1000
0000
1100
0000
0001
0000
0000
0000
0000
0000
0000
1001
0000
0000
1111
0000
0000
0000
0000
1111
0000
1000
0011
0000
0000
0200
1001
0000
,
0000
0000
0000
0010
0000
0001
0000
1000
0000
0000
1011
0000
0000
0000
0000
0010
0002
0000
0000
0000
0300
0000
0010
0000
0000
0000
0000
0000
2010
0000
0000
0000
0000
0000
0000
0000
0003
0000
0000
0000
0000
0000
0120
0000
0000
0000
3000
0000
0000
0100
0000
0000
0000
0000
0000
0100
0000
2000
0000
0000
0000
0000
0030
0000
,
0000
0000
0000
0000
0000
0000
0200
0000
0000
0000
0010
0000
3000
0000
0010
0000
0000
0000
0000
0000
0002
0000
0010
0000
0000
0300
0000
0000
0000
0010
0000
0000
0000
0000
0010
0000
0000
0000
0000
0003
0000
0000
0000
0000
0001
1101
0000
1100
0000
0000
0000
0011
0011
0100
1000
1000
0000
0100
0011
0000
1111
0000
0000
1100
,
0011
0000
0000
1100
0001
0001
0000
0010
0000
1111
0000
1100
0001
0000
0010
0000
1000
1100
0000
0102
0000
0000
0010
0000
0000
1000
0000
0100
0000
0010
0010
0000
0000
1000
0100
0100
0000
0010
0000
0000
0000
1100
0000
0000
0000
1110
0000
0000
0010
1100
0000
0000
0000
1100
0010
0000
0010
0000
1100
0000
1100
0000
0000
0000
,
0000
0010
0000
0000
1000
0000
0000
0000
0010
0100
0000
0000
0010
1100
0000
1000
0000
0110
0000
1010
0103
0000
1100
0000
0011
0000
0000
0010
1100
0000
0011
0000
1100
1100
0000
0000
0000
0001
0000
0010
0010
1100
0000
1000
0000
0100
0011
0000
1011
0100
1100
0000
0011
0000
0000
0011
0000
1000
0000
1101
0000
0000
2000
0011
,
0000
0001
0000
0000
0011
0100
0100
0000
0100
0000
0111
0000
0000
0000
0100
0001
0001
0110
0000
0000
0000
0000
0000
0111
0100
0000
0000
0000
0000
0000
0111
0101
0000
0000
0000
0000
0011
0000
0100
3001
0000
0000
0000
1111
0101
0000
1000
0000
0000
0000
0000
0011
0011
0000
1000
1000
0101
0000
0111
0000
0000
0000
0000
1000
,
0000
0111
0001
0100
0000
1000
0000
0000
0011
0000
1000
0000
0100
0000
0000
0111
0000
0000
1000
1000
0100
0000
0001
0011
0000
0000
0000
0000
1000
0000
0001
0000
1000
0000
0100
0011
0001
0000
1110
0000
1000
0100
0000
0011
0011
0000
1100
0000
1100
0000
0000
0011
0000
0011
1000
0000
1100
0000
0101
0001
0000
0000
0000
0000
,
1011
0000
0001
1100
0000
0000
0001
0000
1011
0100
1100
0000
0000
0000
0000
0010
0001
1001
0000
1000
0100
0000
0000
0111
0000
1000
0000
0000
0001
0001
0010
1100
0000
1000
0001
0000
0000
0000
1100
0000
0000
0001
0100
0011
0000
0000
0010
0000
1100
0000
0000
0001
0001
0000
0010
0000
0011
1000
1100
0100
0000
0001
0000
0010
,
0000
1101
1100
0000
0000
0000
0000
0001
0000
0011
0100
0000
1000
0000
1001
0000
0100
0000
1001
0010
0000
0000
1100
0000
0001
0000
0000
0110
0000
1000
1100
0000
0000
0000
0001
1110
0000
0000
0000
0000
1100
0101
0000
0000
0000
0001
0000
0011
0000
1001
1100
0000
0000
0000
0000
0011
0000
0000
1100
0101
0001
0000
0000
0011
,
0000
0100
1000
0000
1000
0000
0001
0101
0010
0001
1100
0000
0010
0001
0000
1100
0000
1001
0010
0000
0000
0001
0000
1100
0000
0000
0000
1001
0100
0000
0000
0000
0000
0000
0000
1101
0011
0000
1000
0000
0011
0000
0001
1110
0000
0000
0000
2000
0011
0000
0000
0000
0000
0001
0010
0000
0000
0000
0000
0101
0110
3000
0000
0011
,
0000
0100
1000
0110
0002
0000
0000
0000
0010
0010
1100
0000
0000
0000
0000
0000
0010
0000
0000
0200
1000
0000
0010
0000
0000
0003
0000
1000
1000
0000
0010
0000
0000
0300
0000
0002
0000
1010
0000
0000
0000
0000
0000
0000
0010
0000
1000
0000
0000
0200
0000
0010
0000
0000
1000
0000
0000
0013
0000
0000
0000
0000
0000
0000
,
1010
0000
1000
0300
0000
0000
0000
0010
0001
1000
0000
0000
1000
0000
0010
0000
0000
0000
0000
1000
0100
0000
0010
0000
0011
0000
0000
1000
0100
0010
0000
0001
0100
0010
1000
1100
0000
0010
0000
0011
1100
0000
1101
0000
0000
1100
0000
0001
0011
0000
1100
1100
0000
0001
0010
0011
1100
1100
0000
0011
0000
0011
1100
0000
,
1000
0000
0100
0011
0011
0000
0000
0000
0000
0001
0000
0000
0000
0000
0000
0000
1101
0000
0100
0000
0000
0100
0000
0011
0000
1100
0000
0000
0000
0000
0100
0011
0000
1100
0000
1001
0000
0000
0011
0000
1000
0000
0100
0001
0011
1110
0000
0000
0000
1100
0011
0000
0001
1110
0000
0000
0000
0000
1111
0000
0001
1000
0010
0000
,
0001
0000
0010
0000
0001
1000
0000
0001
0101
0000
0000
1000
0000
0000
0000
0011
0000
1000
0000
1100
0000
0001
0101
1000
0000
1000
0100
0000
0000
0000
0011
0000
0000
1100
0000
0001
1001
0000
0100
0000
0000
0000
1100
0000
0000
0001
0001
0000
0000
0000
0011
0100
1100
1000
0000
0001
0000
0010
0000
0011
0100
0000
1000
1001
,
0000
0100
0000
0001
0000
0000
0000
0100
0000
0000
1101
0011
0000
0000
0001
0011
0010
1100
1100
0000
0000
0000
1011
0000
0000
0100
0000
1000
0000
0000
0000
0201
0000
0000
0000
0000
0000
1000
0000
0011
0000
0000
0000
0000
0000
2000
0000
0000
0000
0000
0300
0001
0000
0000
0000
0010
0002
0000
0000
0000
3000
0000
0000
0000
,
0010
0000
0000
0000
0000
0010
0000
0000
0020
0000
0000
0000
0000
0000
0003
0000
0000
0000
0100
0000
2000
0000
0000
0000
0130
0000
0000
0000
0000
0000
0200
0000
0000
0000
0001
0000
0000
3000
0002
0000
0000
0000
0000
0010
0300
0000
0000
0000
0020
0000
0000
0000
0000
0000
0003
0000
0000
0000
2000
0000
0000
0000
0030
0000
,
0000
0000
0200
0000
0000
0000
0000
0000
3000
0000
0000
0000
0000
0000
0000
0010
2000
0000
0000
0300
0000
0000
0010
0000
0000
0000
0000
0000
0010
0000
0000
0000
0002
0000
0000
3010
0000
0000
0000
0100
0010
0000
0000
0000
0000
0000
0110
0000
0010
0003
0000
0000
0000
2110
0000
0000
0000
0000
0220
0000
0000
0000
0000
0000
,
0000
0000
0000
0000
0000
0000
0000
0000
0000
0000
0000
0000
0300
0000
0030
0022
0000
0100
0000
0000
0000
0000
0100
0000
0000
0000
0000
0000
0000
0000
0000
0030
0000
0000
0003
0000
0000
0000
3000
0000
0000
0000
0000
0000
0000
1101
0000
0000
0000
0000
0000
0000
0000
0000
0001
1100
1100
0000
0001
0000
0111
0100
1000
1000
,
0001
0011
0000
0000
1000
1100
0000
0010
0001
0011
0000
1000
1100
0000
0001
0011
0010
0000
1000
1000
0100
0000
0000
0011
0000
0010
1100
1100
0000
0001
0000
0011
0000
0000
1100
0000
0101
0010
0001
0000
0000
0000
0111
0000
0010
0101
1000
0000
0000
0000
1000
0011
0101
1000
0000
0110
0000
0000
0001
0001
1100
0000
0000
1111
,
0000
0100
1000
0000
0000
0000
0010
0011
0000
1100
1100
0000
0000
0000
0011
0011
0100
1100
0000
0000
0010
0001
0001
0000
0000
1100
0000
0000
0011
0001
0000
1100
0000
0000
0010
0001
0011
0100
1000
0100
0000
0001
0010
0000
0011
0000
1100
0000
0000
0010
0011
0000
0000
0000
1100
0100
0000
0001
0010
0010
0000
0000
1100
0011
,
0000
0111
1000
0000
0001
0000
1110
0000
0100
1011
0000
0000
0001
0010
1100
0010
0000
1001
0000
0101
0000
0000
1000
0000
0011
0000
0000
0101
1000
1100
0000
0000
0011
0000
0011
0000
0000
0100
1011
0000
0101
0000
0000
0000
0000
1100
0000
0011
0001
0000
1000
0000
0000
0001
0000
0101
0000
1000
0000
0000
0011
0001
0100
1010
,
0000
0000
1100
0011
0000
0001
1110
0000
0000
0000
0000
0011
0000
0000
1101
0000
1101
0010
0000
0011
1100
0000
0000
0000
1100
0011
0000
0000
1000
0011
0000
0000
0010
0001
0100
0000
1000
0000
0101
0110
0000
0000
0000
0000
0011
0000
0000
1110
0000
0000
0101
0000
0110
0000
0000
1000
0000
0000
0000
0110
0000
0000
0000
0101
,
0000
1000
0000
0110
0000
0010
0000
0001
0000
0000
1110
0000
0000
0101
0000
0000
0000
0000
0100
0000
1101
0000
0011
0000
0100
0001
0000
0000
1101
0000
1010
0000
0000
0000
0001
0000
0011
0000
0000
0111
0000
1000
0000
0011
0000
0000
1000
0011
0000
0000
0000
0010
0000
0000
1000
1000
0000
0000
0001
0100
0110
0000
1000
0000
,
0100
0000
0011
0100
0000
0000
0000
1000
0100
0000
0000
0111
0000
0000
0000
1100
0000
0000
0001
0000
0000
0000
0110
1101
0000
0000
1000
0000
1000
0000
0011
0000
0100
1000
0000
0010
0000
0011
0000
1100
0000
0000
0010
0000
0011
0000
1100
0000
0000
0000
0001
0010
0000
1000
0000
1111
0000
0011
0000
0000
1000
0100
1100
0010
,
0001
0000
0010
0000
0000
1000
0100
0000
0001
0101
0010
0000
0000
0000
0000
0000
1101
1001
0000
0010
0000
0100
0000
0000
1000
1101
0010
0000
0000
0011
0000
0100
1000
0000
0000
0010
0011
0000
0000
0000
1010
0200
0001
0000
0000
0000
0000
0000
0000
2000
0000
0000
0000
0010
0000
0300
0000
0000
0000
0000
0000
0000
0000
0000
,
0000
0012
0000
0000
0000
3000
0000
0000
0000
0010
0000
0000
0000
2000
0000
0000
0000
0003
0000
0000
0000
0200
0000
0000
0010
0000
3000
0000
0000
0010
0000
0000
0000
0000
0000
0010
0000
0000
2000
0000
0300
0000
0000
0000
0010
0000
0000
0000
0000
0000
0011
0000
0000
0000
0000
0000
0000
0011
3000
0000
0000
0000
0000
0000
,
0011
0000
0000
0000
0000
1000
0000
0011
0000
0000
0000
0000
0200
0000
0010
0000
0000
0000
0000
0000
0000
0010
0000
0000
0000
0002
0000
0000
0010
1300
0000
0000
0000
0000
0000
0010
0000
0000
0000
1000
0000
0000
0010
0000
0000
0000
0000
0100
0000
1010
0000
0000
0000
0000
0010
0000
0000
0000
0000
1000
0000
0000
0200
1000
,
0000
0000
0000
0000
0000
0000
0000
0000
2000
0000
0013
0000
0000
0000
0000
0000
0000
0010
0000
0000
0000
0000
0000
0000
0012
0000
0300
0000
0000
0000
3000
0010
0000
0000
0000
0000
0020
0000
0000
0000
0000
0000
0003
0000
0000
0000
2000
0000
0000
0000
0000
0000
0000
0100
0030
0000
0200
0000
0000
0000
0000
0000
0000
0000
,
3002
0000
0000
0000
0000
0000
0000
0000
0000
0000
0300
0000
0000
0000
0000
2000
0000
0000
0000
0010
0000
0000
0000
0003
0010
0000
0200
0000
0000
0000
3000
0010
0000
0000
0000
0000
0000
0000
0010
0000
1000
0000
0300
0000
0002
0010
0000
0000
0000
0000
0000
0010
0000
0000
0000
0000
0000
0000
1000
0000
0000
0000
0000
0000
,
2000
0000
0003
0000
0000
0000
0000
0000
0000
0010
0000
0000
0020
0000
0000
0000
3100
0000
0000
0000
0100
0000
0000
2000
0000
0000
0000
0000
0000
0030
0000
0000
0000
0000
0000
0200
0000
0000
0000
3000
0000
0002
0000
0000
0000
0000
0000
0000
0000
0300
0000
0000
0000
0000
0000
0000
0000
0000
0000
0020
0000
0000
0000
0000
,
0000
0003
0000
0000
0000
0000
0000
2000
0000
0000
0000
0000
0000
0130
0000
0000
0000
0000
0000
0000
0100
0000
0000
0002
0000
0000
0000
3100
0000
0000
0000
0000
0000
0020
0100
0000
0000
0000
0000
0000
0000
0100
0000
0000
0000
2003
0000
0000
0000
0000
0000
0230
0000
0000
0000
0000
0000
0000
0000
0000
0000
3000
0000
0002
,
0000
0000
0000
0000
0000
0000
0000
0000
0000
0000
0000
0300
0000
0000
0000
0000
0000
0000
0000
0000
0013
0000
1000
0000
0000
0000
0001
0000
0000
0100
0001
0000
0000
1111
0000
1100
0000
0000
1011
0111
0000
0000
1000
0011
0000
0000
1111
0000
0000
1000
0111
0000
0001
0000
1000
0100
0000
0100
0011
0000
0000
0000
0000
0000
,
0000
1001
0000
0000
0000
0000
0011
0002
1000
0000
0000
0000
0000
0010
0000
1100
0000
0000
0000
0200
0010
0000
0000
0000
0000
0003
0000
0010
0000
2000
0000
0000
0000
0300
0000
0000
0000
0000
0010
0000
0000
0000
0020
0000
0000
0000
3000
0000
0000
0000
0000
0001
0000
0000
1000
0000
0030
0000
0000
0000
0001
0000
0100
0000
,
0000
0001
0000
0000
0002
0000
0000
0000
0000
0000
0000
0000
0000
0000
0000
0000
0000
0000
0000
0000
0000
0000
0200
0000
0000
0000
0010
0000
0000
0000
2003
0000
0000
0010
0000
0000
0000
0000
0000
0310
0000
0002
0000
0000
0000
0000
0010
0000
0000
0000
0000
0000
0000
3010
0010
0000
0000
0000
0003
0000
2010
0000
0100
0000
,
0000
0000
0000
0010
0000
0000
0000
0000
0102
0000
0000
0000
3000
0000
0110
0000
0000
0000
0000
0000
0000
0110
0000
0000
0000
0000
0000
0010
0000
0100
0000
0000
0000
0000
0110
0000
0000
0000
0000
0000
0000
0110
0000
0000
0000
0000
0000
0100
0000
0010
0000
0000
0000
0000
0110
1000
0003
0000
0000
1000
0010
0001
0010
0000
,
0000
1100
0100
1011
0000
0000
0000
1110
0000
0000
0011
0000
0000
0001
1100
0110
0001
0000
0000
0000
0111
1100
0000
0000
0000
0001
0000
0000
0011
0011
0000
1100
0000
0001
0010
0000
0011
0000
1100
0100
0000
0000
0001
0011
0000
1000
0000
0100
0000
1000
0000
0011
0000
1000
0100
0000
0011
0000
0011
0100
0000
0000
1100
0000
,
0011
0000
0011
2000
0000
0110
0000
0001
0000
0000
0000
0000
0000
0110
0000
0001
0000
0000
0000
0000
0110
0001
3000
0000
0000
0000
0112
1100
0000
0000
0000
0000
0000
0110
0100
0000
0000
0000
0000
0000
0000
0110
0000
0000
0000
0000
1100
0000
0110
0000
0010
1000
0100
0000
1000
0000
0110
0000
0000
1000
1100
0000
0000
0010
,
0110
0000
1000
1100
0000
0000
0010
0000
0110
0000
1100
0000
0010
1000
0000
0000
0000
1100
0010
0100
0000
0010
0000
1000
1000
0100
0010
0100
0010
0000
0000
1003
0100
0001
0110
0010
0000
0000
0000
1100
0000
0000
0000
0010
0010
0000
0000
1100
0000
0000
0000
0001
0011
0000
0001
0000
1100
0010
0000
0000
0011
0000
0000
1001
,
0111
0000
0000
0000
0000
0000
0001
0001
0010
1100
1000
0000
0000
0001
0010
0000
0000
0000
1100
0000
0001
0000
0010
0011
1000
0100
0000
0000
0000
1111
0000
0000
0000
1100
0002
0000
0010
0000
0000
0000
1100
0000
0000
0000
0010
0000
0000
0000
1100
0000
0000
0000
0010
0000
0000
1100
0000
0000
0000
0010
0000
0000
1100
1000
,
0000
0000
0000
0110
0000
1100
0000
0000
0000
0000
0010
0000
0000
1100
0000
0000
0000
0010
1103
0000
1000
0000
0001
0000
0010
1000
0100
0000
0002
0010
0000
0000
1100
1100
0000
0010
0000
1000
0000
0100
0000
0000
0010
0000
0000
0010
0000
1100
0000
1000
0000
0000
0000
0000
0010
0000
0000
1000
1100
0000
0000
0000
0010
0000
,
0000
1100
0000
0000
0000
1010
0000
0000
0000
0000
1100
0000
0100
0010
0000
0000
0000
0000
0000
0000
1100
1100
0000
0000
0000
0010
0000
1100
0100
1003
0000
0000
0001
0010
0000
1000
1100
0000
0000
0000
0011
0000
1100
0000
0000
1100
0000
0011
0000
1000
0100
0000
0010
0011
0000
1000
0000
0100
1100
0000
0011
0000
0100
1000
,
0000
0000
0000
0001
0010
0000
0000
0001
1100
0000
0000
0000
0000
0001
0001
1000
0100
0000
1101
0000
0000
0001
0000
0010
0000
1101
0000
0000
0001
0010
0000
0001
1010
0000
0100
1100
0001
0000
0000
0001
1010
0000
0100
0000
0000
0000
0000
1101
1000
0000
0000
0000
0011
0000
0100
1000
0100
0000
0000
0011
0000
1000
0000
0000
,
1100
0000
0100
0000
0011
0000
1000
0000
0000
0011
0000
0000
0000
0000
0000
0200
0000
0010
0000
0000
0000
0000
0000
0010
0000
0000
0000
0000
0000
0000
0010
0000
0000
0000
2000
0000
0000
0000
0000
0010
0000
0000
0000
0300
0000
0000
0010
0000
0200
0000
0000
0000
3000
0000
0010
0000
0002
0000
0000
0000
0000
0010
0000
0000
,
0300
0000
0000
0000
0010
2000
0000
0000
0000
0000
0000
0010
0000
0000
0000
0100
0000
0010
0000
3000
0000
0000
0003
0000
2110
0002
0000
0000
0000
0000
0000
0110
0000
0000
0000
0000
0010
3100
0000
0010
0000
0000
0000
0000
0113
1000
0000
0010
0001
0000
0100
0000
1110
0000
0011
0000
1100
0010
0100
0011
0000
0000
0000
1100
,
0000
0111
0000
0000
0100
1000
0000
0000
0111
0000
0000
1000
0000
0100
0011
0001
0000
0001
0000
1001
0110
0000
0000
0001
0000
0000
1100
0011
0000
0000
0011
0000
1000
0100
0011
0000
0010
0001
0000
1000
0001
0100
0010
0000
0000
0001
0000
1011
0000
0000
0000
0000
0000
0000
0011
0000
1000
0000
0100
0100
1011
0000
0000
1000
,
0101
0000
0001
0011
0000
0010
0100
1100
1000
0000
0010
0011
0000
0000
1100
0000
0000
0000
0001
0011
0011
0000
0000
0000
1011
0200
0000
1000
0000
0000
0011
0000
0000
0000
0000
0000
0000
0011
0000
0000
0000
0000
0000
2000
0011
0000
0000
0300
0000
0001
0010
0000
0000
0000
0000
0200
0000
0011
3000
0000
0000
0000
0000
0000
,
0010
0000
0002
0000
0000
0000
0300
0000
0010
0000
0000
0000
0000
0000
0000
0010
1100
0000
0003
0000
0000
0000
0001
0010
0100
0000
0000
0000
0010
0011
0000
0100
1000
0000
0000
0011
0000
1100
0000
0000
0000
0001
0010
0010
1000
0100
0000
0001
0010
0010
0000
0000
0000
1100
0000
0011
0000
0011
1000
0100
1000
0000
0101
0011
,
0000
0000
0000
1110
0000
0000
0001
1101
0010
0001
0000
0010
0000
1100
0000
0001
0001
0000
0010
0000
1100
0000
0000
1101
0001
0010
0000
1100
0011
0000
0000
1101
0000
0010
0010
1101
0000
0000
0001
1000
0000
0000
0100
0000
0001
0000
0000
1100
0001
0000
0001
0000
0000
0000
1100
0001
0000
1110
0001
0000
1000
0101
0000
0011
,
0000
0110
1000
1100
0000
0000
0011
0001
0010
0000
0100
0000
1100
0000
1001
0010
0001
0000
1100
0011
0000
0000
1100
0011
0000
1001
0000
0010
0000
1100
0000
0000
0000
0000
0011
1000
0000
1001
0100
0000
0000
0000
0001
1101
0000
0000
0001
0000
1000
0011
0100
0000
0001
0010
0011
0000
1000
0000
0001
0201
0000
0010
0000
0000
,
0000
0000
0000
2000
0010
0000
0000
0000
0000
0310
0000
0000
0000
0000
0000
0010
0000
0000
0000
0002
0000
0000
0010
0000
3000
0000
0000
0000
0000
0010
0000
0000
0000
0200
0000
0000
0010
0000
0000
0003
0000
0000
0000
0010
0000
0000
0000
2000
0000
0000
0310
0000
0000
0000
0000
0000
0000
0011
0010
0000
0000
3000
0000
0000
,
0011
0000
1000
0000
0000
0000
0000
0011
0000
0000
0020
0000
0000
0000
0000
0000
0000
1001
0000
0000
0101
1200
0000
0000
0000
0000
0031
0000
1000
0000
0000
0000
0000
0001
1000
0000
0002
0000
0000
0000
0300
0000
0100
0000
1000
0000
0000
0000
0010
0000
1100
1000
0010
0000
0000
0003
0000
1100
0011
0011
0000
0000
0000
0000
,
1100
0011
0001
0000
0110
1000
0000
0000
0000
0010
1100
0000
0000
0000
0100
0000
0000
1101
0001
0000
0000
0011
0011
1100
0000
1100
0000
0000
0011
0000
1110
0000
0000
1100
0010
0001
0001
1000
0010
0100
0000
1000
0100
0011
0000
0000
1001
0000
0000
0000
0001
0000
0010
0000
1101
0000
0000
0011
1100
0000
0000
0001
1100
0000
,
0000
1110
0000
0000
0000
0011
1100
0000
0000
1100
0000
0001
0011
0000
0000
0000
1100
0000
1100
0001
0011
0000
0000
1010
0000
0000
1101
0000
0000
0011
0000
1011
0000
0100
1100
0010
0001
0000
0000
0011
1100
0000
1101
0000
0000
0010
0000
1011
0000
0000
1000
0000
0100
0001
0000
0002
0000
0010
0000
1100
0000
1100
0000
0010
,
0000
0000
0010
1000
0100
0000
0010
0010
0000
0000
0000
0000
0200
0000
0010
0003
0000
0000
0000
0000
0000
2000
0010
0000
0000
0000
0000
0000
0300
0010
0000
0000
0000
0002
0000
0010
3000
0000
0000
0000
0000
0000
0110
0000
0000
0000
0000
0000
0010
0100
0010
0000
0000
0000
0010
0000
2103
0000
0000
0000
0000
0110
0000
0000
,
0000
0000
0000
0000
0110
0000
0000
0000
0000
0000
0000
0111
0000
0000
0000
0000
0000
0001
0000
0110
0000
0000
0000
0000
0111
0000
0000
0001
0000
0000
0000
0111
0000
0000
0000
3000
0000
0011
0000
0110
0000
1000
0000
0000
0011
0101
0000
0100
0000
0001
0000
0010
0011
0000
1100
0000
0000
1000
0001
0000
0010
0000
0011
0000
,
0000
1100
1000
0001
0010
0000
0000
0000
0001
0000
1001
0100
0000
1000
0000
0000
0011
1101
0000
0100
0000
1000
0000
0001
0011
1100
0000
0000
0000
1100
0011
0000
0110
0000
1000
0000
0000
0001
0010
0100
0000
1100
1001
0000
0000
0011
0000
0011
0000
1000
0100
0000
0000
0000
0011
0011
0000
1000
1100
0000
0000
0000
0001
0010
,
0010
0000
0000
1001
0000
0000
0100
0000
1101
0000
0000
0011
0000
0100
1000
0001
0000
0000
0000
0011
0000
1101
0000
0000
0000
0000
0000
0001
1110
0020
0000
0000
0000
1000
0000
0101
0000
0000
0000
0000
0202
0000
0000
0000
2000
0000
0000
0000
0030
0000
0000
0000
0000
0000
0000
0010
0000
0000
0000
0000
0000
0000
0010
0000
,
3000
0000
0300
0100
0000
0010
1000
0000
0000
0000
0000
0003
0000
0110
0000
0000
0000
0000
0101
0010
0010
1000
0000
0000
0000
0101
0100
0010
0000
0000
0000
0000
0000
1101
0000
0010
0100
0011
0000
0000
1100
0000
0000
0010
0001
0100
1000
0100
0000
0000
0000
0011
0000
0011
0100
1000
0000
1101
0000
0000
0000
0010
0000
0001
,
1101
0000
1100
0000
0010
0000
0000
1002
0000
0000
0010
0000
0000
0000
0100
0000
1100
0010
0000
0000
1000
0000
0000
0000
0000
0000
0000
0010
0000
1100
1000
0010
0000
0000
0000
1110
0000
0000
0000
1010
0000
0000
0100
0000
1010
0000
0010
0000
0000
1000
0100
0000
1010
0000
0000
1000
0110
0000
0000
1000
0000
0110
0003
0000
,
1110
0000
1000
0100
0001
0000
0010
0000
0010
0000
0000
0011
0000
0000
0000
1012
0000
0100
0000
0000
0000
0000
0000
0000
0000
0000
0000
0000
0000
0103
0001
0000
0000
0000
0002
0010
2200
0000
0000
0000
0000
0000
0010
0000
0000
0000
0000
0000
0000
0000
0010
0000
0000
0000
3000
0000
0000
0010
1300
0000
0000
0000
0000
0000
,
0010
0000
0010
0000
0000
0010
1000
0000
0000
0000
0010
0000
1010
1100
0000
0100
0000
0000
0000
0010
1000
0000
0100
0000
0000
0000
0000
0010
0000
1000
0000
0000
1100
0000
0000
0000
0000
0000
1100
0000
0010
0010
1000
0100
0000
0000
1000
0110
0000
0010
1100
0000
0000
0000
1100
0010
0010
0000
1100
0000
1100
0000
0010
0000
,
0000
0000
0000
1100
1010
0000
0010
0100
0000
0000
1003
0000
0100
0000
0111
0000
0000
0000
1000
1100
0000
0001
0010
0000
1100
0000
0000
1101
0010
0001
0000
1100
0000
0000
0000
0000
0001
1001
0000
0011
0101
1000
1100
0000
0000
0000
0011
0001
0000
1100
1000
0000
0000
0000
0111
0000
0000
1100
0000
0000
0000
0011
0011
0000
,
0000
0000
0000
1100
0001
0001
0000
0000
0000
0000
0000
0000
0000
1001
0000
0100
0000
0000
0011
0001
1100
0000
0000
1100
0011
0000
0000
0000
1011
0000
1100
0100
0000
0000
0000
1000
0000
0000
0011
0000
1100
0000
0101
0000
0000
0011
0000
0000
0001
0010
0000
0100
0000
1001
0000
0000
0011
0011
0000
1100
0000
1100
0000
0011
,
0001
0000
0000
1100
1000
0000
0001
0000
0010
0001
1010
0000
1001
0100
0000
0000
0000
0101
1000
0000
0000
0011
0011
0000
0000
1100
1000
0101
0000
0000
0011
0000
0000
1100
1000
0000
0001
0000
0011
0000
0000
1000
1101
0000
0000
0000
0000
0000
0011
0000
0000
0000
1000
0000
0000
1101
0000
0001
0000
1000
0011
0000
0000
1111
,
0000
0000
0001
1000
0010
0000
0101
1100
0000
0000
0000
0001
0001
0000
0010
0000
1100
0000
0101
0000
1000
0001
0000
0000
0001
0001
0000
1110
0000
1000
0000
0000
0011
0101
0000
1100
1000
0000
0000
0011
0001
0000
0010
0000
1000
0111
0101
0000
0000
0000
1001
0000
0110
0000
1001
1000
0100
0000
0000
0000
0011
0000
0000
1100
,
0000
0000
0011
0000
0000
1100
0000
0101
0000
1000
1000
0100
0000
0001
0000
0100
0000
0000
0001
0000
1100
0000
0000
1101
0010
0000
0000
1000
0111
0000
1100
0011
0000
0001
0010
0000
1100
1100
0000
0001
0000
0011
1100
0100
1000
0001
0000
0011
0010
0000
1100
0000
0001
0001
0010
0010
0000
0000
1100
0000
0001
0000
1101
1000
,
0000
0000
0000
0011
0001
1100
0000
0000
0000
1011
0100
1000
0011
0000
0100
0000
0001
1110
0000
0000
1011
0000
1100
0000
0001
0010
0001
0000
0010
0000
0000
1111
0000
0001
0010
0100
0011
0000
1100
0000
0000
0011
0000
0000
1111
0000
0000
0001
1000
0000
0000
0000
0001
0000
1000
0000
1100
0000
0100
0011
0000
1101
0000
1000
,
0000
0100
0011
0000
0011
1100
0000
0000
1011
0000
1000
0000
0101
0000
0000
0011
1000
0000
1101
0000
0000
0000
0000
0011
0000
1100
1001
0000
0000
0000
0011
1101
0000
1100
0000
0000
0000
0011
0001
0000
0000
1000
0000
1000
0000
0001
0001
0000
0000
0000
0011
1100
0000
0000
0000
0010
0000
0000
1100
0000
0000
0010
1000
0001
,
0010
1100
0000
0000
0001
0000
0100
0010
1000
1100
0001
0000
0010
0000
0011
0000
0000
1100
0000
0000
0001
0011
0000
1100
0000
1100
0000
0010
0001
0001
1000
0100
0000
1000
0010
0101
0001
0000
1100
0000
0000
0000
0001
1101
0000
0000
0001
1100
0000
0011
1100
0000
0000
1111
0000
0001
1000
0100
0010
0010
0000
0001
0000
0000
,
1110
0000
0010
0000
1100
0000
0000
0000
0010
0000
0000
0001
0000
1010
0000
1000
0000
0101
0000
0000
0010
0000
0000
0001
1010
0000
0000
1100
0000
0000
0000
0000
1111
0000
1000
0100
0000
0000
1001
0001
0000
0000
0000
0001
1010
0101
0000
1100
0000
0000
0000
0011
0011
0100
0000
1000
0000
0001
0000
0101
0010
0000
1100
0000
,
0001
0010
0000
0000
0000
0000
1000
0000
0101
0000
1100
0000
0000
0011
0101
0000
1100
0000
0000
0000
0000
0001
0000
1101
0000
1100
0000
0000
0001
0011
0000
0000
0000
0000
0000
1101
0000
0000
0001
0000
1100
0000
1011
0010
0000
0000
0000
1100
0000
0101
0011
0000
0000
1100
0000
1011
0000
0000
0100
0000
0000
1001
0100
1011
,
0000
0000
1100
0000
0011
0000
0000
0000
1001
0000
0100
0000
0011
0000
0000
1100
0000
0000
0001
1101
0010
0000
0000
0000
0000
0000
1001
0000
0000
0000
0011
0000
0000
1100
0101
0000
0000
0000
0011
0000
1001
1100
0000
0000
0010
1000
1101
0000
0000
0001
0010
0000
1000
0001
0100
0000
0000
0011
0000
0000
1000
1001
0101
0100
,
0000
0000
0000
0011
1100
0000
1100
0001
0000
0000
0011
0000
1101
0000
1100
0000
0000
0001
0010
1100
0000
0000
1100
0011
0000
0011
1100
0000
1000
0000
0111
0001
1000
0010
0100
0000
1100
0001
0001
1010
0000
0000
0100
0101
1000
0000
0000
0011
0000
0000
1100
0000
0000
0000
0011
0000
0000
1100
1100
0000
0001
0000
0010
0011
,
0000
0000
0000
1101
0000
0000
0000
0000
0011
0000
0000
1100
1000
0011
0000
0000
0101
0000
1000
0000
0011
0011
0000
1000
1100
0000
0011
0001
0000
0000
0000
1100
1100
0000
0011
0001
0000
1000
0100
0001
0000
0000
1011
0000
1000
0000
0010
0100
0001
0000
1011
0000
1101
0100
0000
0000
0000
0011
0000
0000
1101
0100
0000
0000
,
0000
0011
0000
0101
1100
0000
0000
0000
0001
0101
0000
0000
0000
0000
1000
0001
1101
0000
0010
0001
0001
0100
0000
1100
0000
0000
0111
0000
0000
1000
0100
0101
0000
0000
0011
0000
1000
0100
0000
0000
0000
0011
0000
0100
1000
0100
0000
0000
0000
0000
0010
0000
1001
0100
0000
1000
0001
0101
0000
0000
1000
0000
0000
0000
,
0000
0111
0000
1000
0000
0000
0000
0001
1101
0000
1000
0011
0000
0000
1011
0000
1100
0100
0000
0011
0000
0001
1100
0010
0000
0000
0000
0011
0000
1100
0000
0000
0001
0011
0100
1000
0000
1100
0000
0000
0011
0011
0000
0000
1100
0100
0000
0000
0011
0011
0000
0000
1000
0100
0000
1000
0011
0001
0000
1100
0000
0000
0000
1101
,
0011
0000
0000
1100
0011
0000
0001
0000
1000
0000
0001
1100
0010
0000
1101
0000
0000
1000
0000
0011
0000
0101
1000
0100
0011
0000
0011
1100
0000
0000
0000
0011
0001
0000
0000
1100
0000
0000
0111
0000
1001
1100
0000
0010
0000
0001
0011
1100
1100
0010
0001
0000
0000
1111
0000
0000
1001
0000
0010
0101
1000
0000
0101
0000
,
0000
0010
1001
0100
0000
1100
0001
0010
0001
0000
1100
0000
1000
0001
0001
0000
1110
0000
1000
0000
0011
0000
0001
0010
0000
1100
0000
1100
0011
0000
0000
0010
0001
1100
0000
1000
0011
0000
0000
0000
0000
1100
0000
0011
0000
0000
1000
0000
1100
0002
0000
0010
0000
1000
0100
0000
0020
0000
0000
0000
0000
0000
0003
0100
,
0000
0000
0000
0000
0100
0000
1000
0000
0000
0000
0000
0100
0000
1000
0000
0000
0000
1000
0130
0000
1002
0000
0000
0000
0000
0100
0000
0000
0200
0000
0000
0000
0000
0000
0010
0000
0000
0000
0000
0010
0003
0000
2000
0000
0000
0000
0010
0000
0000
0000
0002
0000
0000
0010
0000
0000
0000
0000
0300
0000
3010
0000
0000
0000
,
0020
0000
0000
0000
0000
0000
0000
0000
0000
0000
0000
0000
0003
2000
0000
0000
0100
0000
0000
0000
0030
0200
0000
0000
0000
0000
0000
0002
0000
0000
0000
0000
0000
0000
0000
0000
0000
0000
0000
0000
0000
0000
0000
3000
0000
0003
0000
2000
0000
0010
0000
0000
0000
0300
0010
0002
0000
0000
0000
0000
0010
0000
0000
0000
,
0000
3010
0000
0010
0000
0000
0000
0000
0010
0000
0000
0000
0000
1000
0000
0010
0000
0000
0200
0000
0000
0010
0000
0000
0000
0000
0000
0000
0010
0000
0000
0000
0000
0000
0000
0010
0300
0000
0000
0000
0000
0000
0000
0000
0000
0000
0000
0000
0000
0000
0000
0000
0000
0100
0000
2023
0000
0100
0000
0000
0000
0000
0000
0000
,
0000
0000
0000
0000
0000
0000
0000
0000
0000
0030
0000
0000
0000
0000
0200
0000
0000
0000
0000
0000
0002
3000
0000
0000
0000
0000
0000
0300
0000
0000
0000
0000
0000
0000
0000
0000
0020
0000
0000
0000
0000
0000
0000
0003
0000
2000
0000
0000
0000
0000
0030
0000
0200
0000
0000
0000
0000
0000
0002
0000
0000
0000
0000
0000
,
0000
3000
0000
0000
0300
0000
0000
0000
0000
0020
0000
0000
0000
0000
0000
0000
0000
0000
0103
0000
2000
0000
0100
0000
0000
0000
0030
0100
0100
0000
0000
0000
0010
0000
0100
0000
0000
0000
0000
0100
0000
0000
0000
0002
3100
0000
0100
0000
0000
0000
0100
0000
0000
0000
0000
0000
0000
0020
0000
0000
0000
0000
0000
0000
,
0000
0000
0000
0000
0000
2003
0000
0000
0030
0000
0000
0000
0000
0200
0000
0000
0000
0000
0000
0000
0000
0002
0000
3000
0000
0000
0000
0000
0000
0000
0300
0000
0000
0000
0000
0020
0000
0000
0000
0000
0000
0000
0000
0000
0000
0000
0000
0000
0000
0003
0000
2000
0000
0030
0000
0000
0000
0000
0000
0210
0000
0000
0000
0010
,
0000
0002
0000
0000
0000
3020
0000
0000
0000
0000
0000
0000
0000
0300
0000
0000
0000
0000
0000
0000
0000
0100
0000
0030
0000
0000
2000
0010
0000
0000
0000
0000
0000
0010
0000
0000
0000
0000
0010
0000
0000
0000
0000
0010
0000
0000
0000
0000
0003
0010
0000
0000
0000
0000
0010
0000
0200
0000
0000
0000
0000
0000
0002
0000
,
0000
3000
0000
0000
0300
0000
0000
0020
0000
0000
0000
0000
0000
0000
0000
2003
0000
0000
0000
0000
0000
0100
0000
0000
0000
3202
0000
0030
0000
0000
0000
0000
,
0000
0000
0000
0000
0000
0000
0300
0000
0000
0000
0000
0000
0000
0000
0000
0010
0100
0000
0000
0000
0010
0000
2003
0000
0000
0000
0000
0010
0000
0000
0000
0000
0010
0000
0000
0000
0012
0000
0000
0000
0000
0200
3000
0010
0000
0000
0000
0000
0000
0000
0010
0000
0000
0020
0000
0000
0000
0000
0003
0000
0000
2000
0000
0000
,
0000
0000
0000
0000
0000
0000
0000
0002
0000
0300
0000
0000
0000
0000
0000
0000
0000
0000
0000
0000
3000
0030
0000
0000
0000
0003
0000
2000
0000
0000
0000
0010
0000
0200
0000
0000
0020
0002
0000
0000
0000
0000
0000
0000
0000
0000
0000
0000
0000
0000
0000
0000
0000
0000
0000
0000
0000
0000
0000
0000
0000
0000
0000
0000
,
0000
0000
0000
0000
0000
0000
0000
0000
0000
0000
0000
0000
0000
0000
0000
0000
0000
0000
0000
0000
0000
0000
0000
0000
0000
0000
0000
0000
0000
0000
0000
0030
,
0010
3303
0000
0000
0000
0000
0000
0000
0000
0000
0000
0000
0000
0000
0000
0000
;

//---------------dance-single - challenge----------------
#NOTES:
     dance-single:
     challenge:
     Challenge:
     49:
     1.000,1.000,1.000,1.000,1.000,3777.000,1867.000,232.000,0.000,784.000:
1111
0000
0000
0000
0000
0000
0000
0000
0000
0000
0000
0000
0000
0000
0000
0000
0001
0000
0000
0000
0000
1100
0000
0000
0011
0000
0000
0000
0000
0000
0000
0000
0000
0000
0000
0000
1100
0000
0000
0000
0000
0000
0000
0000
0011
0000
0000
0000
0000
0000
0000
0000
1100
0000
1100
0000
0000
0000
0000
0000
0000
0000
0000
0010
0010
0000
0000
0000
0001
1100
0000
0000
1100
0000
0000
0000
0000
0000
0010
0000
0000
0000
0000
0000
0001
0000
0000
0000
0000
0000
0000
0000
1100
0000
0000
0000
1100
0000
0000
0000
0000
0000
0000
0000
0001
0010
0000
0000
0000
0000
0000
0000
0000
0000
0010
0000
0000
0000
0000
0000
0000
0000
0000
0100
1101
0000
0000
0000
0000
0000
0000
0000
0000
0000
0000
0000
0001
0000
0010
0000
0000
0000
0000
0000
0000
0000
0000
0000
1100
0000
0000
0000
0000
0000
0000
0000
0011
0000
0000
0000
0000
0000
0000
0000
0000
0000
0000
0000
1100
0000
0000
0000
0000
0000
0000
0000
0011
0000
0000
0000
0010
0000
0000
0000
0000
0000
0000
0000
1100
0000
0000
0000
,
0000
0000
0000
0010
0001
0000
0000
0000
0000
0000
0000
0000
0000
0000
0000
0000
0000
0000
0000
0000
0000
0010
0000
0000
1000
0000
0000
0000
0000
0000
0000
0000
0101
0000
0000
0000
0011
0000
0000
0000
0000
0000
0000
0000
0000
0010
0000
0000
0000
0000
0000
0000
1100
0000
0000
0000
0000
0000
0000
0000
0011
0000
0000
0000
1000
0000
0000
0000
0100
0010
0000
0000
0000
0000
0000
0000
0000
0000
0000
0000
0011
0000
0000
0000
0000
0000
0000
0000
1100
0000
0000
0000
0000
0010
0000
0000
0001
0000
0000
0000
0010
0000
0000
0000
0000
0000
0000
0000
1010
0000
0000
0000
0100
0000
0000
0000
0000
0000
0000
0000
0010
0000
0000
0000
0001
0000
0000
0000
0000
0000
0000
0000
0010
0000
0000
0000
1100
0000
0000
0000
0000
0000
0000
0000
0001
0000
0000
0000
0000
0000
0010
0000
0000
0000
0000
0000
0000
0000
0000
0000
0000
0000
0000
0000
1101
0000
0000
0000
0010
0000
0000
0000
0000
0000
0100
0000
0011
0000
0000
0000
0000
0000
0000
0000
1100
0000
0000
0000
0000
0010
0000
0000
,
0001
0000
0000
0000
0010
0000
1000
0000
1100
0100
0000
0000
0000
0000
0000
0011
0000
0000
0000
0000
0011
0000
0000
0000
1000
0000
0000
0000
0000
0000
0000
0000
1000
0101
0000
0000
0100
0000
0000
0010
0000
0000
0000
0000
0011
0000
0000
0000
0000
0000
0000
1100
0000
0000
0000
0000
1100
0000
0000
0000
0001
0000
0000
0000
0011
0000
0010
0000
0000
0000
0000
0000
0010
0000
0000
1000
1000
0000
0000
0000
0110
0000
0000
0000
0101
0000
0000
0000
0000
0000
0000
0000
0010
0000
0000
0000
0000
0000
0000
0000
0000
0000
0000
0000
0000
0000
0000
0000
0001
0000
0000
0000
1111
0000
0000
0000
0000
0000
0000
0000
0000
0000
0000
0010
0000
0000
0000
0000
0000
0000
0000
0000
1101
0000
0000
0000
0000
0000
0000
0000
0000
0011
0000
0000
0011
0000
0000
0000
0000
0000
1100
0000
1100
0000
0000
0000
0000
0000
0000
0011
0010
0000
0000
0000
0001
0000
0000
0000
0100
0000
0000
0000
0000
0000
1000
0000
1100
0001
0000
0000
0000
0000
0000
0010
0000
0000
0000
0000
0011
0000
0000
0000
,
0000
0000
0000
1100
1100
0000
0000
0000
0000
0000
0000
0000
0011
0000
0000
0000
0001
0000
0000
0000
0000
0000
0000
0000
0000
0000
0000
0000
0000
0000
0000
0000
0000
0000
0000
0000
1111
0000
0000
0000
0000
0000
0000
0000
0000
0001
0000
0000
0010
0000
0000
0100
0000
0000
0000
0000
1100
0000
0000
0000
0100
0000
0000
0000
0000
0000
0000
0000
0011
0000
0000
0000
0010
0000
0000
0000
1101
0000
0100
0000
0100
0000
0000
0000
1000
0000
0000
0000
0001
0000
0000
0000
0011
0011
0000
0000
1000
0000
0000
0000
0100
0000
0100
0000
0000
0000
0000
0000
1101
0000
0000
0001
0011
0000
0010
0000
0011
0000
0000
0000
1100
0000
0000
0000
0000
0000
0000
0000
1100
1100
0000
0000
0011
0000
0000
0000
0011
0000
0011
0000
1000
0000
0000
0000
0000
0000
0000
1100
1100
0000
0000
0000
0001
0000
0000
0000
0000
0000
0000
0001
0000
0000
0000
0000
0000
0010
0000
0000
0000
0000
0000
0000
1100
0000
1100
0000
0001
0000
0000
0000
0011
0000
0000
0000
0000
0000
0000
0000
0011
0000
0000
0000
,
0000
0000
0000
0000
1100
0000
0010
0000
0000
0000
0000
0000
0000
0000
0000
0000
0011
0000
0000
0000
1000
0000
0000
0000
1100
0000
0000
0000
0100
0000
0000
0000
0000
0010
0000
0000
0000
0000
0000
0000
0011
0000
0000
0000
1100
0000
0000
0000
0010
0000
0000
0000
0000
0000
0000
0000
0000
0100
0000
0000
0011
0000
0000
0000
0000
0000
0000
0000
1000
0000
0000
0000
0110
0000
0000
0000
0000
0000
0000
0000
0001
0000
0000
0000
0000
0000
0000
0000
0000
0000
0010
0000
0000
0000
0000
0000
1100
0000
0000
0000
0001
0000
0000
0000
0000
0000
0000
0000
0000
0000
0000
0000
0000
0000
0010
0000
0011
0000
0000
0000
1101
0000
0000
0000
0100
0000
0000
0000
1000
0000
0000
0000
0000
0000
0000
0000
0011
0000
0010
0000
0000
0000
0000
0000
1100
0000
0000
0100
0000
0000
0000
0000
0000
0010
0000
0000
0011
0000
0000
0000
0000
0000
0000
0000
1100
0000
0000
0000
0000
0000
0000
0000
0000
0000
0000
0000
0011
1000
0000
0000
0100
0000
0000
0000
0001
0000
0000
0000
0000
0000
0000
0000
,
1100
0000
0000
0011
0000
0000
0000
0000
0011
0000
0000
0000
1100
0000
0000
0000
0000
0000
0000
0000
1100
0001
0000
0000
0000
0000
0000
0000
0000
0000
1100
0000
0011
0000
0000
0000
0001
0000
0000
0010
0000
0000
0000
0000
0000
0000
0000
0000
1100
0000
0000
0000
0000
0000
0000
0000
0011
0000
0000
0000
0000
0000
0000
0101
0000
0000
0000
0000
1100
0000
0000
0000
0000
0000
0000
0000
0001
0000
1001
0000
0000
0000
0000
0000
0000
0000
0000
0000
1000
0000
0000
0000
0100
0000
0000
0000
0001
0000
0000
0000
0000
0000
0100
0000
0001
0000
0000
0000
1010
0000
0000
0000
0000
0000
0000
0000
0000
0011
0000
0000
1100
0000
0000
0000
0001
0000
1000
0000
0010
0000
0000
0000
0001
0000
0000
0000
0010
0000
0000
0000
1100
0011
0000
0000
1100
0000
0000
0000
0010
0000
1100
0000
0000
0000
0000
0000
0011
0000
0000
0010
0100
0000
0001
0000
1100
0000
0000
0000
0000
0000
0000
1100
0011
0000
0000
0000
0000
0000
0000
0000
0011
0000
0000
0000
0000
0000
0000
0000
1100
0000
0000
0000
,
0001
0000
0000
0000
0010
0000
0000
0000
0000
1101
0000
0000
0000
0000
0000
0000
1100
0000
0011
0000
0000
0000
0000
0000
0100
0000
0000
1000
0011
0000
0000
0000
0000
0000
0000
0000
0000
0000
0000
0011
0000
0000
0000
0000
0011
0000
0000
0000
1100
0000
0000
0000
0000
0000
0000
0000
0000
0000
0000
0000
0000
0000
0000
0011
1000
0000
0000
0000
0000
1100
0000
0000
0000
0000
0000
0000
0000
0000
0000
0000
0000
0001
0000
0000
0010
0000
0000
0000
0000
0000
0000
0000
0000
1100
0000
0000
0000
0000
0000
0000
0010
0000
0010
0000
0000
0001
0000
0000
0000
0000
0000
0000
0000
0000
1100
0000
1010
0000
0000
0000
0001
0000
0000
0010
0000
0000
0000
0000
0010
1100
0000
0000
0010
0000
0000
0000
1000
0000
0000
0000
0000
0011
0000
0000
0010
0000
0000
0000
0000
0000
1100
0000
1001
0000
0000
0000
0000
0000
0000
0001
0000
0000
0010
0000
0010
0000
0000
0000
0000
0000
0000
1000
0000
0000
0100
0000
0000
0000
0000
0000
1101
0000
0000
0011
0010
0000
0000
0000
0000
0000
0000
0000
,
0000
0000
0000
1000
1001
0000
0000
0000
0100
0000
0000
0000
0000
0000
0000
0101
0010
0000
0000
0000
0000
0000
0000
0000
0000
0000
0000
0000
0000
0000
0000
0000
0111
0101
0000
0000
1000
0000
0000
0000
0000
0000
0000
0000
0000
0000
0000
0000
0011
0000
0000
0000
0001
0000
1100
0000
0000
0000
0000
0000
0010
0000
0000
0000
0000
0000
0000
0000
1100
0011
0000
0000
0000
0000
0000
1100
0011
0000
0000
0000
0000
0000
0000
0000
0000
0000
0000
0001
0000
0000
0010
0000
0000
0000
0000
0000
0000
0000
0000
1100
0010
0000
0000
0000
0000
0000
0000
0000
0001
0000
0000
0010
0000
0000
0000
0000
0010
0000
0000
0000
1100
0000
0000
0000
0000
0000
0000
0000
0000
0000
0000
0000
0011
0000
0000
0000
0000
0000
0000
0000
0010
1000
0000
0000
0100
0000
0000
0000
0000
0000
0000
0000
0000
0001
0000
0000
0110
0000
0000
0000
0000
0000
0000
0000
0000
0000
0000
0000
1000
0000
0000
0000
0100
0000
0001
0000
0010
0000
0000
0000
0000
0000
0000
0000
0000
0000
0000
0000
0000
0000
0000
0000
,
0000
0000
0000
0000
0110
0000
0000
0000
0000
1000
0000
0000
0000
0000
0000
0001
0000
0000
0010
0000
1100
0000
0000
0000
0000
0000
0000
1100
0000
0000
0000
0000
0000
0000
0000
0000
0001
0000
0000
0010
0100
0000
0000
0000
1000
0000
0000
0000
0000
0000
0000
1100
0000
0000
0000
0000
0000
0011
0000
0000
0000
0000
0000
0000
1100
0000
0000
0000
0000
1100
0000
0000
0000
0000
0000
0000
0000
0000
0001
0000
1100
0010
0000
0000
0000
0000
0000
0000
0000
0000
0000
0000
0000
1100
0000
0000
0100
0000
0000
0001
1000
0000
0000
0000
0000
0010
0000
0000
0000
0000
0000
0000
0000
0000
1100
0000
0000
0000
0000
0000
0000
0000
0000
0000
0000
0000
0011
0000
0000
0000
0000
0000
0000
0000
0000
0000
0000
0000
0000
0000
0010
0000
0000
0000
0000
0000
0000
0000
0000
0000
0001
0000
0000
1100
0000
0000
0110
0000
0000
0000
0000
0000
0000
0000
0000
0000
0000
0000
1001
0000
0000
0000
0000
0000
0100
0000
0000
0000
0000
0000
0110
0000
0000
0011
0000
0000
0000
0000
0000
0000
0000
0000
,
1000
0000
0000
0100
0110
0000
0000
0000
0000
0000
0000
0000
0011
0000
0000
0000
0000
0000
0000
0000
0000
0100
0000
0000
1000
0000
0000
0001
0000
0000
0000
0000
0000
0010
0000
0000
0000
0000
0000
1000
0000
0000
0100
0000
0000
0000
0000
0000
0000
0000
0000
0000
0000
0000
0011
0000
1100
0000
0000
0000
0100
0000
0000
1000
0000
0000
0000
0000
0000
0000
0000
0000
0000
0000
0000
0011
0010
0000
0000
0000
0000
0000
0000
0000
0000
0000
0000
0000
0000
0000
1100
0000
0000
0000
0000
0000
0001
0000
0000
0010
0010
0000
0000
0000
0010
0000
0000
0000
0000
0000
0000
1100
0001
0000
0000
0000
0110
0000
0000
0000
0000
0000
0000
0001
0000
0000
0000
0000
0000
0100
0000
0000
0010
0000
0000
0000
0000
0000
1000
0000
0011
0000
0000
0000
0001
0000
0000
0000
0000
0000
0000
0000
0000
0011
0000
0000
1111
0000
0000
0000
0000
0000
0000
0000
0000
1100
0000
0000
0000
0000
0000
0010
0000
0000
0001
0000
0000
0000
0000
0000
0100
0000
0000
0000
0010
0000
1000
0000
0000
0000
0000
0000
,
0111
0000
0000
0000
0001
0000
0000
0000
1000
1100
0000
0000
0000
0000
0000
0000
0000
0000
0000
0000
0000
0011
0000
0000
0000
0000
0000
0000
0000
0000
0000
0000
0000
1000
0000
0000
0100
0000
0000
0000
0000
0000
0000
0000
0110
0011
0000
0000
0000
0000
0000
0000
1000
0000
0000
0000
0000
1000
0000
0000
0110
0000
0000
0000
0000
0000
0001
0000
0000
0000
0000
0000
0000
0000
0000
0000
0000
0000
0001
0000
0000
0000
0000
0000
0110
0000
0000
0000
0000
0000
1100
0000
0000
0000
0000
0000
0000
0000
0000
0011
0000
0000
0000
0000
0000
0000
0000
0000
0000
0000
0000
1100
0000
0000
0000
0000
0000
0000
0000
0000
0011
0000
0000
0000
0000
0000
0000
0000
0000
0000
0000
0000
1100
0000
0000
0000
0000
0000
0000
0000
0000
0011
0000
0000
0000
0000
0000
0000
0000
0000
0000
0000
0000
0000
0000
0000
1100
0000
0000
0000
0000
0000
0000
0000
0000
0000
0000
0000
0011
0000
0000
0000
0000
0000
0000
0000
0110
1100
0000
0000
0000
0000
0000
0000
0000
0000
0000
0000
0000
0001
0000
0000
,
0010
0000
0000
0000
0100
0000
0000
0000
0000
0000
0000
0000
1100
0000
0000
0000
0000
0000
0001
0000
0000
0000
0000
0000
0100
0000
0000
0000
0010
0000
0000
0000
0000
0001
0000
0000
0000
0000
0000
1100
0000
0000
0000
0000
0010
0000
0000
0000
0000
0000
0000
0000
0000
0000
0011
0000
0000
0000
0000
0000
1100
0000
0000
0000
1100
0000
0000
0000
0010
0000
0000
0000
0000
0000
0000
0011
0000
0000
0000
0000
0000
1000
0000
0000
1100
0000
0000
0000
0000
0000
0000
0000
0010
0000
0000
0000
0011
0000
0000
0000
0000
0000
0000
0000
0000
0000
0000
0000
1110
0000
0000
0000
0000
0000
0000
0000
0000
0001
0000
0000
0000
0000
0000
0000
0000
0000
0000
0000
1101
1000
0000
0000
0110
0000
0000
0000
0000
0000
0000
0000
0000
0000
0000
0000
0001
0000
0000
0000
0011
0000
0000
0000
0000
0000
0000
0000
1100
0000
0000
0000
0000
0000
0000
0000
0010
0001
0000
0000
0000
0000
0000
0000
0011
0000
0000
0000
0000
0011
0000
0000
0000
0000
0000
0000
0001
0000
1100
0000
0010
0000
0000
0000
,
0100
0000
0000
0000
0000
0000
0010
0000
0000
0000
0000
0000
0001
0000
0000
1100
0000
0000
0000
0000
0010
0000
0000
0000
0000
0000
0000
0011
0000
0000
0000
0000
0000
0000
0000
0000
1100
0000
0000
0000
0000
0000
0000
0000
0010
0000
0000
0000
0010
0000
0000
0001
0000
0000
0000
0000
0000
0000
0000
0000
1110
0000
0000
0100
0000
0000
0000
0000
0000
0000
0000
0000
0010
0000
0000
0000
0000
0000
0001
0000
0000
0000
0000
0000
1110
0000
0000
0000
0000
0000
0000
0000
0000
0000
0000
0000
0000
0000
0000
0011
0000
0000
0000
0000
0000
0000
0000
0000
0110
0000
0000
1100
0000
0000
0000
0000
0000
0000
0000
0000
0001
0000
0000
0000
0110
0000
0000
0000
0000
0000
0000
0000
0000
0000
0000
0000
0000
0000
0000
0000
0000
0001
0000
0000
0110
0000
0000
1100
0000
0000
0000
0000
0000
0011
0000
0000
0000
0000
0000
0000
0000
0000
0100
0000
0000
0000
0000
0000
1110
0000
0000
0000
0000
0000
0011
0000
0000
0000
0000
0000
0000
0000
0000
1000
0000
0000
0000
0000
0000
0100
0000
0000
,
0000
0000
0000
0001
0000
0000
0010
0000
0000
0000
0000
0000
0000
0000
0000
0000
0000
0000
1100
0000
0000
0000
0000
0000
0001
0000
0000
0000
0000
0000
0010
0000
0000
0000
0000
0000
0000
0000
0000
1100
0000
0000
0000
0000
0000
0000
0000
0000
0001
0000
0000
0010
0000
0000
0000
0000
0110
0000
0000
0000
1100
0000
0000
0000
0000
0000
0001
0000
0000
0000
0000
0000
0100
0000
0000
0010
0010
0000
0000
0000
0000
0100
0000
0000
1000
0000
0000
0000
0000
0000
0000
0000
0000
0000
0000
0000
0001
0000
0000
0000
0010
0000
0000
0000
0000
0000
0000
0000
0000
0000
0000
0000
0000
0000
1101
0000
0000
0000
0000
0000
0110
0000
0000
0000
0000
0000
0000
0000
0000
0011
0000
0000
0000
0000
0000
1100
0111
0000
0000
0000
0000
0000
0000
0000
0000
0000
0000
0000
0000
0000
0011
0000
0010
0000
0000
0000
1101
0000
0000
0000
0000
0000
0000
0000
0000
0000
0000
0000
0000
0000
0000
0011
0000
0000
0000
0000
0000
1100
0000
0000
0000
0000
0000
0000
0000
0000
0001
0000
0000
0000
0000
0000
,
0010
0000
0000
0000
0000
0000
0000
0000
0000
1000
0000
0000
0000
0000
0000
0100
0000
0000
0000
0000
0000
0001
0000
0000
0010
0000
0000
0000
0000
0000
0000
0000
0000
0000
0000
0000
1100
0000
0000
0000
0000
0000
0000
0000
0000
0000
0000
0000
0011
0000
0000
0000
0000
0000
0000
0000
0000
1100
0000
0000
0000
0000
0000
0000
0000
0000
0000
0000
0000
0001
0000
0000
0000
0000
0000
0000
0010
0000
0000
0000
0100
0000
0000
0000
0000
0000
0000
0000
0000
0000
1101
0000
0000
0000
0000
0000
0110
0000
0000
0000
0110
0000
0000
0000
0000
0011
0000
0000
0000
0000
0000
1100
0110
0000
0000
0000
0000
0000
0000
0000
0110
0000
0000
0000
0000
0000
0011
0000
0000
0000
0000
0000
1110
0000
0000
0000
0000
0000
0000
0000
0000
0000
0000
0000
0110
0000
0000
0011
1100
0000
0000
0000
0000
1100
0000
0000
0001
0000
0000
0000
0110
0000
0000
0000
0000
0000
0000
0000
1101
0000
0000
0000
0000
0000
0000
0000
0001
0000
0000
0000
1000
0000
0000
0000
0110
0000
0000
0000
1100
0000
0000
0000
,
0000
0000
0000
0001
0000
0000
0000
0000
0110
0001
0000
0000
0000
0000
0000
0000
0000
0000
0000
0000
0000
1100
0000
0000
0000
0000
0000
0000
0000
0000
0000
0000
0110
0000
0000
0000
0001
0000
0000
0000
0000
0000
1100
0000
0000
0000
0000
0000
0000
0000
0000
0000
0000
0000
0000
0000
0000
0011
0000
0000
0000
0000
0000
1100
0000
0000
0000
0000
0000
0000
0000
0000
0000
0000
0000
0000
0000
0000
0011
0000
0000
0000
0000
0000
0100
0000
0000
1000
0000
0000
0000
0000
0000
0000
0000
0000
0000
0000
0000
0011
0000
0000
0000
0000
0000
0000
0000
0000
0000
0000
0000
1100
0000
0000
0000
0000
0000
0000
0000
0000
0000
0000
0000
0000
0000
0000
0011
0000
1110
0000
0000
0000
0100
0000
0000
1100
0010
0000
0000
0000
0000
0000
0000
0000
1101
0000
0000
0001
0110
0000
0000
0000
0000
0000
0000
0000
0000
0000
0000
0100
0000
0000
0001
0000
0011
0000
0000
0000
0000
0000
0000
0000
1110
0000
1000
0000
0000
0000
0000
0000
0000
0000
0000
0000
0001
0000
0001
0000
0010
0000
0000
0000
,
0000
0000
0000
1100
0101
0000
0000
0000
0000
0000
0000
0000
0000
0000
0000
0011
0000
0000
0000
0000
0110
1100
0000
0000
0000
0000
0000
0000
0000
0000
0000
0000
0000
0000
0000
0000
0011
0000
0000
0000
0110
0000
0000
0000
0000
1100
0000
0000
0000
0000
0000
0000
0000
0000
0000
0000
0000
0011
0000
0000
0000
0000
0000
0000
0000
0000
0000
0000
0000
0000
0000
0000
1100
0000
0000
0000
0000
0000
0001
0000
0100
0010
0000
0000
0000
0000
0000
0000
0000
0000
0000
0000
0000
1100
0000
0000
0000
0000
0000
0000
0000
0000
0000
0000
0101
0011
0000
0000
0000
0000
0000
0000
0000
0000
0000
0000
0000
0000
0000
0000
0000
0000
0000
0000
0100
0000
0010
0000
0000
0001
0000
0000
0001
0000
0000
0000
0010
0000
0000
0000
1100
0001
0000
0000
1000
0000
0000
0000
0100
0000
0000
0000
0010
0000
0000
0000
1000
0000
0000
0000
0000
0000
0000
0000
0100
0001
0000
0000
0000
0000
0000
0000
0010
0000
1000
0000
0000
0000
0000
0000
1100
0000
0000
0000
0000
0000
0001
0000
0010
0000
0000
0000
,
0000
0000
0000
0000
1000
0000
1100
0000
0100
0000
0000
0000
0000
0000
0000
0000
0010
0000
0000
0000
0000
0011
0000
0000
0000
0000
0000
0000
0000
0000
1000
0000
0000
0000
0000
0000
0100
0000
0000
0000
0000
0000
0011
0000
0000
0000
0000
0000
0000
0000
0000
0000
0000
0000
1100
0000
0000
0000
0000
0000
0000
0000
0000
0001
1100
0000
0000
0000
0000
0010
0000
0000
0000
0000
0000
0000
0000
0000
1100
0000
0000
0000
0000
0000
1101
0000
0000
0000
0000
0000
0010
0000
0000
0000
0000
0000
0000
0000
0000
1100
0000
0000
0000
0000
0000
0000
0000
0000
1100
0000
0000
0011
0000
0000
0000
0000
0000
0000
0000
0000
0000
0000
0000
0000
0000
0000
1100
0000
0000
0000
0000
0000
0001
0000
0000
0000
0000
0000
0000
0000
0000
0010
0000
0000
0000
0000
0000
0000
0000
0000
0000
0000
0000
1100
0000
0000
0000
0000
0000
0000
0000
0000
0011
0000
0000
0000
0000
0000
0000
0000
0000
0000
0000
0000
1100
0000
0101
0000
0000
0000
0000
0000
0000
0000
0000
0000
0000
0000
1101
0001
0000
0000
,
0000
0000
0000
0000
0011
0000
0000
0000
0000
0000
0000
0000
1100
0000
0000
0000
0000
0000
0000
0000
0101
0000
0000
0000
1111
0000
0000
0000
0000
0000
0000
0000
0100
0000
0000
0000
0000
0000
0000
0000
1100
0000
0000
0000
0000
1101
0000
0000
0011
0000
0000
0000
0001
0000
0000
0000
0000
0011
0000
0000
0010
0000
0000
0000
0000
0000
1100
0000
0101
0000
0000
0000
1000
0000
0000
0000
0000
0000
0011
0000
0011
0000
0000
0000
0000
0000
0000
0100
1111
0000
0000
0000
0000
1000
0000
0000
1100
0000
0000
0000
0000
0000
0011
0000
0000
0000
0000
0000
0011
0000
0000
0000
0000
0000
1100
0000
0100
0000
0000
0000
1000
0000
0000
0000
0000
0000
0000
0000
0000
0011
0000
0000
0000
0000
0000
0000
0011
0000
0000
0000
1100
1100
0000
0000
0000
0000
0000
0000
0000
0000
0011
0000
0000
0000
0000
0000
1100
0000
0000
0000
0000
0000
1100
0000
1100
0000
0000
0000
0011
0000
0000
0000
0000
0000
0000
0000
0100
0001
0000
0000
0011
0000
0000
0000
1000
0000
0000
0000
0000
1100
0000
0000
,
0000
0000
0000
0000
0011
0000
0001
0000
0000
0000
0000
0000
1101
0000
0000
0000
0000
0000
0000
0000
0011
0000
0000
0000
0001
0000
0000
1100
1100
0000
0000
0000
0000
0000
0000
0000
0000
0000
0000
0011
0010
0000
0000
0000
0001
0100
0000
0000
1000
0000
0000
0000
1100
0000
0000
0000
0000
0000
0000
0000
0001
0000
0000
0010
0000
0000
0000
0000
0000
0000
0000
0000
0000
0000
0000
1100
0000
0000
0000
0000
0000
0001
0000
0000
1000
0000
0000
0010
0000
0000
0000
0000
0000
0000
0000
0000
1100
0000
0000
0000
0100
0000
0000
0000
0000
0000
0000
0000
0011
0000
0000
0000
0011
0000
0000
0000
0000
0000
0000
0000
1100
0000
0000
1100
0000
0000
0000
0000
0000
0000
0000
0000
0000
0000
0000
0001
1111
0000
0000
0000
0000
0000
0000
0000
1110
0000
0000
0000
0000
0000
0100
0000
0100
0000
0000
0000
0001
0000
0000
0000
0001
0000
0000
0000
1000
0000
0000
0000
0000
0000
0000
0001
0010
0000
0000
0000
1101
1000
0000
0000
1000
0000
0000
0100
0001
0000
0000
0000
0010
0000
0000
0000
,
1111
0000
0000
0000
0000
0000
0000
0000
0000
0000
0000
0000
1111
0000
0000
0000
0000
0000
0000
0000
0000
0000
0000
0000
0000
0000
0000
0011
1100
0000
0000
0000
0000
1100
0000
0000
0001
0000
0000
0000
0010
0000
0001
0000
0000
0000
0000
0000
0010
0000
0000
0000
0000
0000
1000
0000
0000
0100
0000
0000
0000
0000
0000
0000
0000
0000
0000
0000
0000
0011
0000
0000
0000
0000
0000
0000
0000
0000
1000
0000
0000
0000
0000
0000
1100
0000
0000
0000
0000
0000
0001
0000
0100
0000
0000
0000
0010
0000
0000
0000
0010
0000
0000
0000
0000
0000
0000
0000
1100
0000
0000
0000
0000
0000
0000
0000
0000
0011
0000
0000
0010
0000
0000
0000
0000
0000
0000
0000
0001
1100
0000
0000
0000
0000
0000
0000
1100
0000
0000
0000
0000
0000
0000
0000
1101
0000
0000
0000
0001
0000
1100
0000
0011
0000
0000
0000
0110
0000
0000
0001
1000
0000
0000
0000
0000
0000
0000
0000
0000
0000
0000
0000
1111
0000
0000
0000
0000
0001
0000
0000
0000
0000
0000
1100
0000
0000
0000
0000
1000
0000
0000
0000
,
0000
0000
0000
0000
0101
0000
0000
0000
0000
0000
0000
0000
1111
0000
0000
0000
0000
0000
0000
0000
0011
0000
0000
0000
0000
0000
0000
0001
1100
0000
0000
0000
0000
0110
0000
0000
1000
0000
0000
0000
0000
0000
0000
0000
0000
0000
0000
0000
0000
0000
0000
0000
0000
0000
0011
0000
0000
0000
0000
0000
1100
0000
0000
0000
0000
0000
0000
0000
0000
0000
0000
0000
0000
0000
0000
0011
0000
0000
0000
0000
0000
0100
0000
0000
1000
0000
0000
0000
0000
0000
0000
0000
0000
0000
0000
0000
0011
0000
0000
0000
0000
0000
0000
0000
0000
0000
0000
0000
0000
0000
0000
1100
0000
0000
0000
0000
0000
0001
0000
0000
0000
0000
0000
0010
0000
0000
0000
0000
0000
0000
0000
0000
1100
0000
0000
0000
0000
0000
0000
0000
0000
0000
0000
0000
0011
0000
0000
0000
0000
0000
0000
0000
0000
1100
0000
0000
0011
0000
0000
0000
0000
0000
0000
0000
1100
0001
0000
0000
0000
0000
0000
0010
0011
0000
0000
0000
0000
0000
0000
0000
1100
0000
0000
0000
0000
0000
0000
0000
0001
0000
0000
0000
,
0011
0000
0000
0000
0000
0000
0000
0000
0000
0000
0000
0000
0010
0000
0000
1100
1100
0000
0000
0000
0000
0000
0000
0000
0011
0000
0000
0001
0000
0000
0000
0000
0000
0000
0000
0000
0000
0000
0000
0000
0000
0000
1100
0000
0010
0000
0000
0000
1101
0000
0000
0000
0000
0000
0000
0000
0000
0000
0000
0000
0011
0000
0000
0000
0000
0000
0000
0000
1000
0000
0000
0000
0100
0000
0000
1101
0000
0000
0000
0000
0011
0000
0000
0000
0010
0000
0000
0000
0000
0000
0000
0000
0000
0000
0000
0000
1101
0000
0000
0000
0010
0000
0100
0000
0011
0000
0000
0000
0000
0000
0000
0000
0000
0000
0011
0000
0100
0000
0000
0000
0000
0000
0000
1100
1000
0000
0000
0000
0000
0000
0000
0000
0001
0000
0000
0011
0000
0000
0000
0000
0001
0000
0000
0000
1110
0000
0000
0000
0000
0000
0000
0000
1100
0000
0000
0000
0011
0000
0000
0000
0001
0000
0000
0000
0010
0000
0000
0000
0000
0000
0000
1100
0000
0000
0000
0000
1100
0000
0000
0000
0011
0000
0000
0000
0000
0000
0000
0000
0011
1000
0000
0000
,
0100
0000
0000
0000
1100
0000
0000
0000
0000
0000
0000
0000
0001
0000
0000
0000
0000
0000
0010
0000
0011
0000
0000
0000
1100
0000
0000
0000
0000
0000
0000
0000
0000
0000
0000
0000
0000
0000
0000
0011
1001
0000
0000
0000
0100
0000
0000
0000
0000
0000
0000
0000
0011
0000
1100
0000
0000
0000
0000
0000
0001
0000
0000
0000
0000
0000
0010
0000
1100
0000
0000
0000
0000
0000
0000
1100
0011
0000
0000
0000
0000
0000
0000
0000
1100
0000
0000
0011
0000
0000
0000
0000
0000
0000
0000
0000
0001
0000
0000
0000
0000
0000
0100
0000
1010
0000
0000
0000
1101
0000
0000
0000
0001
0000
0000
0000
0011
0000
0000
0000
0000
0000
0000
0000
1110
0000
0000
0000
0000
0000
0000
0000
0011
0000
0000
1101
0000
0000
0000
0000
1100
0001
0000
0000
0010
0000
0000
0000
0011
0000
0000
0000
0000
0100
0000
0000
1000
0000
0000
0000
1100
0000
0000
0000
0000
0000
0000
0000
0011
0000
0000
0000
0010
0000
0000
0000
0000
1100
0000
0000
0000
0000
0000
0000
0000
0000
0000
0000
0000
0011
0000
0000
,
0000
0000
0000
0000
0000
0000
1000
0000
0000
0000
0000
0000
0100
0000
0000
0000
0000
0000
0000
0000
0000
0000
0000
0000
0011
0000
0000
0000
0000
0000
0000
0000
0000
1000
0000
0000
0100
0000
0000
0000
0000
0000
0000
0000
0000
0000
0000
0000
0001
0000
0000
0000
1000
0000
0010
0000
0000
0000
0000
0000
1100
0000
0000
0000
0000
0000
0000
0000
0000
0000
0000
0000
0011
0000
0000
0001
0000
0000
0000
0000
1100
1100
0000
0000
0000
0000
0000
0000
0000
0000
0000
0000
0000
0001
0000
0000
0011
0000
0000
0000
0000
0000
0010
0000
0000
0000
0000
0000
1100
0000
0000
0000
0000
0000
0000
0000
0000
0000
0000
0000
1101
0000
0000
0000
0000
0000
0000
0000
0011
0000
0000
0000
0000
0000
0000
0100
1100
0000
0000
0000
0000
0000
0000
0000
1101
0000
0000
1001
0011
0000
0000
0000
0000
0000
0000
0000
0001
0000
0000
0000
0000
0000
0000
0000
1101
0000
0000
0000
1000
0000
0000
0000
0010
0000
0000
0000
0000
0000
0000
0000
1000
0000
0000
0001
0000
0000
0000
0000
0011
1100
0000
0000
,
0000
0000
0000
0000
0000
0000
0000
0000
0000
0000
0000
0000
0001
0000
0000
0000
0000
0000
0000
0000
0001
0000
0000
0000
1110
0000
0000
0000
0000
0000
0000
0000
0000
0000
0000
0000
1101
0000
0000
0011
0011
0000
0000
0000
0011
1000
0000
0000
0100
0000
0000
0000
1100
0000
0000
0000
1101
0000
0000
0000
0011
0000
0000
0000
0011
0000
0000
0000
0000
1000
0000
0000
1110
0000
0000
0000
0000
0000
0000
0000
0011
0011
0000
0000
1100
0000
0000
0000
0100
0000
0000
0000
1000
1100
0000
0000
0000
0000
0000
0000
0001
0000
0001
0000
0000
0000
0000
0000
0010
0000
0000
0000
0000
0000
1000
0000
1100
0000
0000
0000
1101
0000
0000
0100
0011
0000
0000
0000
0011
0000
0000
0000
0000
0000
0000
0000
1100
0000
0000
0000
1100
1001
0000
0000
0100
0000
0000
0000
0011
0000
0000
0000
0000
0000
0000
0000
0010
0000
0000
0000
0111
0000
0001
0000
0000
0100
0000
0000
1100
0000
0000
0000
0000
0000
0000
0000
0011
0000
0000
0000
0000
0000
0000
0001
0001
0000
0100
0000
0000
0000
0000
0000
,
0011
0000
0000
1000
0000
0000
0000
0000
0000
0000
0000
0000
1101
0000
0000
0000
0000
0000
0000
0000
0011
0000
0000
0000
0010
0000
0000
0000
0000
0000
0000
0000
0000
1000
0000
0000
1100
0000
0000
0101
0010
0000
0000
0000
0000
0000
0000
0000
0011
0000
0000
0000
0000
0000
1000
0000
1000
0000
0000
0000
0111
0000
0000
0000
0000
0000
0000
0000
0000
0000
0000
0000
0001
0000
0000
0000
0000
0000
0000
0000
0000
1101
0000
0000
0011
0000
0000
0000
0000
0000
0000
0000
1100
0000
0000
0000
0000
0000
0000
1101
0011
0000
0000
0000
0000
0000
0000
0000
0000
0000
0000
0000
0000
0000
0000
0000
1100
0000
0000
0000
0101
0000
0000
1000
0010
0000
0000
0000
0000
0000
0000
0000
0000
0000
0000
0000
0011
0000
0000
0000
0000
0101
0000
0000
1010
0000
0000
0000
0010
0000
0000
0000
0000
0000
0000
0000
2200
0000
0000
0000
0000
0000
0001
0000
0010
0000
0000
0000
0010
0000
0000
0000
0000
0000
0000
0000
0001
0000
0000
0000
0000
0000
0000
0000
0000
0000
0000
0000
0010
0000
0000
0000
,
0011
0000
0000
0000
0000
0000
0000
0000
0000
0000
0000
0000
0010
0000
0000
0000
0010
0000
0000
0000
0000
3002
0000
0000
0000
0000
0000
0000
0000
0000
0000
0000
0000
0000
0000
0000
0010
0000
0000
0000
0010
0000
0000
0000
0000
0000
0000
0000
1000
0000
0000
0000
0010
0000
0000
0000
0000
0000
0000
0000
1000
0000
0000
0000
0000
0000
0000
0000
0000
0300
0000
0000
1000
0000
0000
0000
0000
0000
0000
0000
0000
0020
0000
0000
0100
0000
0000
0000
0000
0000
0000
0000
1000
0100
0000
0000
0000
0000
0000
0000
0000
0000
0000
0000
0000
0000
0000
0000
1100
0000
0000
0000
0000
0000
0000
0000
1100
0000
0000
0000
0000
0000
0000
0000
1100
0000
0000
0000
0000
0000
0000
0000
0000
0000
0000
0000
0000
0000
0000
0000
1100
0000
0000
0000
0030
0000
0000
1100
1100
0000
0000
0000
0000
0000
0000
0000
0100
0000
0000
0000
1000
0000
0000
0000
0000
0020
0000
0000
0000
0000
0000
0000
1000
0000
0000
0000
0000
0000
0000
0000
0000
0000
0000
0000
1100
0000
0000
0000
0000
0000
0000
0000
,
0000
0000
0000
0000
1000
0000
0000
0000
1000
0000
0000
0000
0000
0000
0000
0000
0000
0000
0000
0000
0000
0000
0000
0000
0000
0000
0000
0000
1000
0000
0000
0000
0000
0200
0000
0000
0000
0000
0000
0003
0000
0000
0000
0000
0000
0000
0000
0000
0000
0000
0000
0000
1000
0000
0000
0000
0000
0000
0000
0000
0000
0000
0000
0000
0000
0000
0000
0000
1000
0000
0000
0000
1000
0000
0000
0000
0000
0000
0000
0000
0000
0000
0000
0000
0331
0000
0000
0000
0000
0000
0000
0000
1000
0200
0000
0000
1000
0000
0000
0000
0000
0000
0000
0000
0000
0000
0000
0000
0000
0000
0000
0020
1000
0000
0000
0000
0000
0000
0000
0000
1000
0000
0000
0000
0000
0000
0000
0000
0000
0000
0000
0000
1000
0000
0000
0000
0000
0000
0000
0000
1000
0000
0000
0000
0002
0000
0000
0000
0000
0000
0300
0000
0000
0000
0000
0000
1000
0000
0000
0000
0000
0000
0000
0000
1000
0000
0000
0000
0000
0000
0000
0000
1100
0000
0000
0000
0000
0000
0000
0000
1100
0000
0000
0000
0000
0000
0000
0000
0000
0000
0000
0000
,
0000
0000
0000
0000
1100
0000
0000
0000
1100
0000
0000
0000
0000
0000
0000
0000
0000
0000
0000
0000
0000
0000
0000
0000
1100
0000
0000
0000
0000
0000
0000
0000
1100
0000
0000
0000
0000
0000
0000
0000
0000
0000
0000
0000
1100
0000
0000
0000
0100
0000
0000
0000
0000
0000
0000
0000
1000
0000
0000
0000
0100
0000
0000
0000
0000
0000
0000
0000
0000
0000
0000
0000
0030
0000
0000
2000
0000
0000
0000
0000
0000
0003
0000
0000
0000
0000
0000
0000
0000
0000
0000
0000
0010
0000
0000
0000
0000
0000
0000
0000
0100
0000
0000
0000
0000
0000
0000
0000
0110
0000
0000
0000
0000
0000
0000
0000
0110
0000
0000
0000
0000
0000
0000
0000
0000
0000
0000
0000
0100
0000
0000
0000
0021
0000
0000
3200
0000
0000
0002
0000
0000
0000
0000
0000
0000
0000
0000
0000
0000
0000
0000
0000
0000
0000
0000
0000
0000
0000
0000
0000
0000
0000
0000
0000
0000
0000
0000
0000
0000
0000
0000
0000
0000
0000
0000
0000
0000
0000
0000
0000
0030
0000
0000
1000
0000
0000
0000
0000
0000
0000
0000
0000
,
0000
0000
0000
0000
0000
0000
0000
0000
0000
0003
0000
0000
0000
0000
0000
0010
0000
0000
0002
0000
0000
0000
0000
0000
0000
0000
0000
0000
0000
0000
0000
0000
0000
0000
0000
0000
0000
0000
0000
0000
0000
0000
0000
0000
0000
0000
0000
0000
0300
0000
0000
0000
0000
0000
0000
0000
0000
0020
0000
0000
0000
0000
0000
0000
0000
0000
0000
0000
0000
0000
0000
0000
0000
0000
0000
0000
0000
0000
0000
0000
0000
2003
0000
0000
0100
0000
0000
0000
0000
0000
0000
0000
0100
0000
0000
0000
0000
0000
0000
0000
0000
0000
0000
0000
0000
0000
0000
0000
0000
0000
0000
0000
0000
0000
0000
0000
0100
0000
0000
0000
0000
0000
0000
0000
0000
0000
0000
0000
0000
0000
0000
0000
0000
0000
0000
0000
0000
0000
0000
0000
0100
0000
0000
0000
0000
0000
0000
0000
0000
0000
3000
0000
0000
0201
0000
0000
0000
0000
0000
0000
0000
0000
0000
0000
0000
0000
0000
0000
0002
0000
0000
0000
0000
0000
0000
0000
1000
0000
0000
0000
0000
0000
0000
0000
0000
0000
0000
0000
0000
0000
0000
0000
,
1000
0000
0000
0000
1000
0000
0000
0000
0000
0000
0000
0000
0000
0000
0000
0000
0000
0000
0003
0000
0000
0000
0000
0000
1000
0000
0000
0002
1000
0000
0000
0000
0000
0000
0000
0000
0000
0000
0000
0000
1000
0000
0000
0000
0000
0000
0000
0000
0000
0000
0000
0000
1000
0000
0000
0000
1000
0000
0000
0000
0000
0000
0000
0000
0000
0000
0000
0000
0000
0000
0000
0000
1000
0000
0000
0000
0000
0000
0003
0000
0000
0000
0000
0000
0000
0000
0000
0000
1000
0000
0000
0000
0000
2330
0000
0000
0000
0000
0000
0000
0000
0000
0000
0000
0000
0000
0000
0000
0001
0000
0000
0000
0110
0000
0000
0000
0000
0000
0000
0000
0000
0000
0000
0000
0111
0000
0000
0000
0000
0000
0000
0000
0111
0000
0000
0000
0000
0000
0000
0000
0111
0000
0000
0000
3220
0000
0000
0002
0000
0000
0000
0000
0000
0000
0000
0000
0000
0000
0000
0000
0000
0000
0000
0000
0000
0000
0000
0000
0000
0000
0000
0000
0000
0000
0000
0000
0000
0000
0000
0000
0000
0000
0000
0000
0000
0000
0000
0000
0000
0000
0000
0000
,
0000
0000
0000
0000
0000
0000
0000
0000
0000
0000
0000
0000
0000
0000
0000
0000
0000
0000
0000
0000
0000
0000
0000
0000
0000
0000
0000
0000
0000
0000
0000
0000
0000
0000
0000
0000
0000
0000
0000
0000
0000
0000
0000
0000
0000
0000
0000
0000
0300
0000
0000
0000
0000
0000
0000
0000
0000
0030
0000
0000
0000
0000
0000
0000
1000
0000
0000
0000
0000
0000
0000
0000
0000
0000
0000
0000
0000
0000
0000
0000
0000
0000
0000
0000
0000
0000
0000
0000
1000
0000
0000
0000
0000
0000
0000
0000
0000
0000
0000
0000
0000
0000
0000
0000
0000
0010
0000
0000
1010
0000
0000
0000
0000
0000
0000
0000
0010
0000
0000
0000
0000
0000
0000
0000
0010
0000
0000
0000
0000
0000
0000
0000
0010
0000
0000
0000
0000
0000
0000
0000
0000
0000
0000
0000
0010
0000
0000
1200
0000
0000
0000
0000
0000
0000
0000
0000
0010
0000
0000
0000
0000
0000
0000
0000
0000
0000
0000
0000
0010
0000
0000
0000
0010
0000
0000
0000
0000
0000
0000
0000
0000
0000
0000
0000
0000
0000
0000
0000
0010
0010
0000
0000
,
0010
0000
0000
0000
0000
0000
0000
0000
0000
0000
0000
0000
0000
0000
0000
0000
0000
0000
2000
0000
0010
0000
0000
0000
0010
0000
0000
0000
0000
0000
0000
0000
0000
0000
0000
0000
0000
0000
0000
0000
0010
0000
0000
0000
0010
0000
0000
0000
0000
0000
0000
0000
0000
0000
0000
0000
0010
0000
0000
0000
0000
0000
0000
0000
0000
0000
0000
0000
0010
0000
0000
0000
0000
0000
0000
0300
0000
0000
3000
0000
0010
0000
0000
0000
0010
0000
0000
0000
0000
0000
0000
0000
0010
0000
0000
0000
0000
0000
0000
0000
0000
0000
0000
0000
0000
0000
0000
0000
0000
0000
0000
2000
0000
0000
0000
0000
0010
0100
0000
0000
0000
0000
0000
0003
0000
0000
0000
0000
0000
0001
0000
0000
0000
0000
0000
0000
0000
0000
0000
0000
0010
0000
0000
0000
0000
0000
0000
0000
0000
0000
0000
0000
0000
0000
0000
0000
3000
0000
0000
0000
0000
0000
0010
0000
0011
0000
0000
0000
0000
0000
0000
0100
0001
0000
1000
0000
0000
0001
0000
0000
1000
0000
0000
0010
0011
0000
0000
0000
0000
1000
0000
0000
,
0100
0000
0000
0000
0011
0000
0001
0000
0011
0000
0000
0000
1110
0000
0000
0000
0000
0000
1100
0000
0111
0000
0000
0000
0000
0000
0000
0001
1100
0000
0000
0000
0000
0000
0000
0000
0001
0000
0000
0000
0010
0000
0000
0000
0000
1001
0000
0000
0100
0000
0000
0000
0000
0000
0012
0000
1000
0000
0000
0000
0000
0000
0000
0000
0010
0000
1000
0000
0000
0100
0000
0000
0000
0000
0000
0000
0000
0000
0000
0000
0010
0010
0000
0000
0000
0000
0000
0000
0000
0000
0000
0000
0000
0000
0000
0000
0000
0000
0000
0010
0000
0000
0000
0000
0010
0000
0000
0000
0000
0000
0000
0000
0000
0000
1100
0000
0000
0000
0000
0000
0010
0000
0000
0000
0000
0000
0000
0000
0010
0000
0000
0000
0100
0000
0000
1100
0000
0000
0000
0000
0010
0000
0000
0000
0010
0000
0000
0000
1010
0000
0000
0000
0100
0000
0000
0000
1000
0000
0000
0100
0010
0000
0000
0000
0000
0000
0000
0000
0110
0000
0000
0000
0010
0000
0000
0000
1010
1100
0000
0000
0000
0000
0000
0000
0000
0000
0000
0000
1010
0010
0000
0000
,
0100
0000
0000
0000
0000
0000
0200
0000
0000
0000
0000
0000
1000
0000
0000
0000
0000
0000
0000
0000
0010
0000
0000
0000
0010
0000
0000
0000
0000
0000
0000
0000
0000
0003
0000
0000
0000
0000
0000
0000
0000
0000
2000
0000
0010
0000
0000
0000
0000
0000
0000
0000
0000
0000
0300
0000
0001
0000
0000
0000
0010
0000
0000
0000
0000
0000
0000
0000
0000
0000
0000
0000
0000
0000
0000
0000
0000
0000
0000
0000
0000
0000
0000
0000
3022
0000
0000
0000
0000
0000
0100
0000
0000
0000
0000
0000
0000
0000
0000
0000
0000
0000
0000
0000
0000
0000
0000
0000
0000
0000
0000
0000
0000
0000
0000
0000
0000
0000
0000
0000
0000
0000
0000
0000
0000
0000
0000
0000
0000
0103
0000
0000
0000
0000
0000
0000
0000
0000
0000
0000
0000
0000
0000
0000
0000
0000
0000
0000
0000
0000
0000
0000
0000
0000
0000
0000
0030
0000
0000
0000
0000
0000
1000
0000
0000
0000
0000
0000
1100
0000
0000
0000
1100
0000
0100
0000
0000
0000
0000
0000
0000
0000
0000
0000
1100
0000
0000
0000
1100
0022
0000
0000
,
0000
0000
0000
0000
0000
0000
0000
0000
0000
0000
0000
0000
0100
0000
0000
0000
1100
0000
0000
0000
1000
0000
0000
0000
0000
0000
0000
0000
0000
0000
0000
0000
1100
0000
0000
0000
0000
0000
0000
0000
1100
0000
0000
0000
0000
0000
0000
0000
0000
0000
0000
0000
0000
0000
0000
0000
0000
0000
0000
0000
1100
0000
0000
0000
1100
0000
0000
0000
0000
0000
0000
0000
0000
0000
0000
0000
1100
0000
0000
0000
1100
0003
0000
0000
1000
0000
0000
0000
0000
0000
0000
0000
0000
0000
0000
0000
0000
0000
0000
0000
0000
0000
0000
0000
0000
0100
0000
0000
0000
0000
0000
0000
0000
0000
0000
0000
0000
0000
0000
0000
2000
0000
0000
0030
0000
0000
0000
0000
0000
0000
0000
0000
0000
0000
0000
0000
0000
0000
0000
0000
0000
0000
0000
0000
0010
0000
0000
0000
0000
0000
0000
0000
0000
0000
0000
0000
0000
0000
0000
0000
0000
0000
0000
0000
0000
0000
0000
0000
0000
0000
0000
3000
0100
0000
0100
0000
0010
0002
0000
0000
0000
0000
0000
0000
0000
0000
0000
0000
0000
0000
0000
0000
,
0000
0000
0000
0000
0110
0000
0000
0000
0100
0000
0000
0000
0000
0000
0000
0000
0000
0000
2200
0000
0010
0000
0000
0000
0000
0000
0000
0000
0010
0000
0000
0000
0000
0000
0000
0000
0013
0000
0000
0000
0000
0000
0000
0000
0000
0000
0000
0000
0000
0000
0000
0000
0010
0000
0000
0000
0000
0000
0000
0000
0010
0000
0000
0000
0000
0000
0000
0000
0010
0300
0000
0000
0001
0000
0000
0000
0010
0000
0000
0000
0000
0000
0000
0000
0000
0000
0000
0000
0000
0000
0000
0000
0010
3000
0000
0000
0220
0000
0000
0000
0000
0000
0000
0000
0000
0000
0000
0000
0000
0000
0000
0000
0000
0000
0002
0000
0000
0000
0000
0000
0000
0000
0000
0000
0000
0000
0000
0000
0000
0000
0000
0000
0000
0000
0000
0000
0000
0000
0000
0000
0000
0000
0000
0000
0000
0000
0000
0000
0000
0000
0000
0000
0000
0000
0000
0000
0000
0000
0000
0000
0000
0000
0000
0000
0000
0000
0000
0000
0000
0000
0000
0003
0000
0000
0000
0000
0000
0000
0000
0000
0300
0000
0000
0201
0000
0000
2030
0000
0000
0000
0000
0000
,
0000
0000
0000
0000
0000
0000
0000
0000
0000
0000
0000
0000
0000
0000
0000
0000
0000
0000
0000
0000
0000
0002
0000
0000
0000
0000
0000
0000
0000
0000
0000
0000
0000
0000
0000
0000
0000
0000
0000
0000
0000
0000
0000
0000
0000
0000
0000
0000
0000
0000
0000
0000
0000
0000
3300
0000
0000
0010
0000
0000
0000
0000
0000
0000
0000
0000
0000
0000
0000
0000
0000
0000
0010
0000
0000
0000
0010
0000
0000
0000
0000
0000
0000
0000
0000
0000
0000
0000
0010
0000
0000
0000
0000
0200
0000
0000
1000
0000
0000
0000
0010
0000
0000
0000
0000
0000
0000
0000
0000
0000
0000
0000
0010
0000
0000
0000
0000
0000
0000
0000
0010
0000
0000
0000
0000
0000
0000
0000
0010
0000
0000
0000
0000
0000
0000
0000
0000
0000
0000
0000
0000
0000
0000
0000
0010
0000
0000
0000
0000
0000
0000
0000
0000
0000
0000
0000
0000
0000
0000
0000
0000
0000
0000
0000
0010
0000
0000
0000
0010
0000
0000
0000
0000
0000
0003
0000
0000
0000
0000
0000
0000
0000
0000
2000
0010
0000
0000
0000
0000
0002
0000
0000
,
0000
0000
0000
0300
0010
0000
0000
0000
0000
0000
0000
0000
0000
0000
0000
0000
0010
0000
0000
0000
0000
0000
0000
0000
0010
0000
0000
0000
0000
0000
0000
0000
0000
0000
0000
0000
0000
0000
0000
0000
0010
0000
0000
0000
0000
0000
0000
0000
3013
0000
0000
0000
0000
0000
0210
0000
0010
0002
0000
0000
0000
0000
0000
0000
0000
0000
0000
0000
0010
0000
0000
0000
0000
0000
0000
0000
0000
0000
0000
0000
0010
0000
0000
0000
0000
0000
0000
2000
0010
0000
0000
0000
0000
0000
0000
0000
0010
0000
0000
0000
0000
0000
0000
0000
0000
0000
0000
0000
0000
0000
0000
0000
0010
0000
0000
0000
0000
0000
0000
0000
0010
0000
0000
0000
0000
0000
0000
0000
0000
0000
0000
0000
3013
0000
0000
0000
0000
0000
0010
0000
0000
0002
0000
0000
0000
0000
0000
0000
0000
0000
0000
0000
0000
0000
0000
0000
1000
0000
0000
0300
0000
0000
0000
0000
0000
0000
0000
0000
0000
0000
0000
0000
1000
0000
0000
0000
0000
0000
0000
0000
0020
0000
0000
0000
0000
0000
0000
0000
0000
0000
0000
0000
,
1200
0000
0000
0000
0000
0000
0000
0000
0000
0000
0000
0000
0000
0000
0000
0000
0000
0000
0000
0000
0000
0000
0000
0000
1000
0000
0000
0000
1000
0000
0000
0000
0000
0000
0000
0000
0000
0000
0000
0000
0000
0000
0000
0000
1000
0000
0000
0000
1000
0000
0000
0000
0000
0000
0003
0000
0000
0000
0000
0000
0302
0000
0000
0000
0000
0000
0000
0000
0000
0000
0000
0000
0000
0000
0000
0000
0000
0000
0000
0000
0000
0000
0000
0000
0000
0000
0000
0000
0000
0000
0000
0000
0000
2230
0000
0000
0000
0000
0000
0000
0000
0000
0000
0000
0000
0000
0000
0000
0000
0000
0000
0000
0000
0000
0000
0000
0000
0000
0000
0000
0000
0000
0000
0000
0000
0000
0000
0000
0000
0000
0000
0000
0000
0000
0000
0003
0000
0000
3020
0000
0000
0000
0000
0000
0000
0000
0000
0000
0000
0000
0000
0000
0001
0000
0000
0000
0000
0000
0000
0000
0000
0000
0000
0000
0000
0000
0000
0000
0000
0000
0000
0000
0000
0000
0000
0000
0000
0000
0000
0000
0000
0000
0000
0000
0000
0000
0000
0000
0000
0002
0000
0000
,
0000
0000
0000
0330
0000
0000
0000
0000
0000
0000
0000
0000
2000
0000
0000
0000
0000
0000
0200
0000
0000
0000
0000
0000
0000
0000
0000
0000
0000
0000
0000
0000
0000
0000
0000
0000
0000
0000
0000
0000
0000
0000
0000
0000
0010
0000
0000
0000
0000
0000
0000
0000
0000
0000
0000
0000
0000
0000
0000
0000
0010
0000
0000
0000
0000
0000
0000
0000
0000
0000
0000
0000
0000
0000
0000
0000
0010
0000
0000
0000
0000
0000
0000
0000
0000
0000
0000
0000
0000
0000
0300
0000
0000
0000
0000
0000
0110
0000
0000
0000
0000
0000
0000
0000
0000
0000
0000
0000
3000
0000
0000
0000
0010
0000
0013
0000
0000
0000
0000
0000
0100
0000
0000
1001
0000
0000
0000
0000
0000
0000
0000
0000
0000
0000
0000
0000
0000
0000
0000
0000
0000
0000
0000
0000
0000
0000
0000
0000
0000
0000
1101
0000
0000
0000
0000
0000
0011
0000
0000
0010
0000
0000
0000
0000
0000
0000
0000
0000
0000
0000
0000
1100
0000
0000
0000
0000
0000
0011
0000
0000
0000
0000
0000
0000
0000
0000
1100
0000
0011
0000
0000
0000
,
0001
0000
0000
0000
0000
0000
0010
0000
0000
0000
0000
0000
0011
0000
0000
1100
0000
0000
0000
0000
0000
0001
0000
0000
0101
0000
0000
0000
0010
0000
0010
0000
0011
0000
0000
0000
1101
0000
0000
0000
0000
0000
0001
0000
1111
0000
0000
0000
0000
0000
0000
0000
0011
0000
0000
0000
0000
0001
0000
0000
0100
0000
0000
1100
1100
0000
0000
0000
0011
0000
0000
0000
0011
0000
0000
0000
0100
0000
0000
0000
1000
0000
0000
0000
1101
0000
0000
0000
0011
0000
0000
0000
0000
0011
0000
0000
0100
0000
0000
0000
1000
0000
0000
0000
0000
1100
0000
0000
0001
0000
0000
0000
0000
0000
0011
0000
0011
0000
0000
0000
0000
0000
0000
1000
1100
0000
0100
0000
1000
0000
0000
0000
0000
0000
0000
0011
0011
0000
0000
0000
0000
0000
0000
0000
1100
0000
0000
0000
0001
0000
0000
0000
1100
0000
0000
0000
0011
0000
0000
0000
0000
0000
0100
0000
0000
1000
0000
0000
0000
0000
0000
0000
1100
0000
0000
0000
0000
0001
0000
0000
0010
0000
0000
0000
0000
0000
0000
0000
1100
0000
0000
0000
,
0000
0000
0000
0000
0000
0000
1001
0000
0000
0000
0000
0000
0000
0000
0000
0000
0000
0000
0000
0000
0100
0000
0000
0000
0010
0000
0000
1000
0000
0000
0000
0000
0100
0002
0000
0000
0000
0000
0000
0110
0010
0000
0000
0000
0010
0000
0000
0000
0100
0000
0000
0000
1100
0000
0000
0000
0000
1000
0000
0000
0010
0000
0000
0000
0000
0000
0000
0000
1000
0000
0000
0000
1100
0000
0000
0000
0000
0000
0000
0000
0000
0000
0000
0000
0010
0000
0000
0000
0000
0000
0000
0000
1100
0100
0000
0000
0000
0000
0000
0000
0000
0000
0000
0000
0000
0010
0000
0000
0000
0000
0000
0000
0010
0000
0000
0000
0000
1100
0000
0000
1100
0000
0000
0000
0000
0000
0000
0000
0010
0010
0000
0000
0000
0000
0000
0000
0000
0000
1100
0000
0000
0000
0000
0000
1100
0000
0000
0000
0000
0000
0010
0000
0010
0000
0000
0000
0000
0000
0000
1100
0000
0000
0000
0000
0000
0000
0000
0000
0100
0000
0000
0013
0000
0000
0000
0000
0000
0000
0000
0000
0001
0000
0000
0000
0000
0000
0000
0000
0000
0000
0000
0000
,
0000
0000
0000
0000
1000
0000
0000
0000
0000
0000
0000
0000
0001
0000
0000
0000
0000
0000
0000
0000
0000
1101
0000
0000
0000
0000
0000
0001
0101
0000
0010
0000
0000
0000
0000
0000
0011
0000
0000
0000
0000
0000
1100
0000
0000
0000
0000
0000
0000
0000
0000
0001
1100
0000
0010
0000
0011
0000
0000
0000
0000
0000
0000
0000
0000
0000
0000
0000
0000
1100
0000
0000
1102
0000
0000
0000
0000
0000
0000
0000
0010
0000
0000
0000
0200
0000
0000
0000
1010
0000
0000
0000
0000
0000
0000
0000
0000
0000
0000
0000
0000
0000
0000
0000
0010
0000
0000
0000
1010
0000
0000
0000
0000
0000
0000
0000
1000
0000
0000
0000
0010
0000
0000
0000
0010
0000
0000
0000
0000
1000
0000
0000
1000
0000
0000
0000
0010
0000
0000
0000
0000
0000
0000
0000
0010
0000
0000
0000
0000
0000
1300
0000
0000
0000
0000
0000
0110
0000
0000
0000
1100
0000
0000
0000
0000
0000
0000
0000
0010
0000
0000
0000
0000
0000
1000
0000
0000
0000
0000
0000
1000
0000
0000
0000
0000
0000
0000
0000
0000
0003
0000
0000
,
0000
0000
0000
0000
0010
0000
0000
0000
0000
0000
0000
0000
0000
0000
0000
0111
0000
0000
0000
0000
0010
0000
0000
0000
0001
0000
0000
0000
0100
0000
0000
0000
0000
0000
0000
0000
1100
0000
0000
0000
0000
0000
0000
0000
0001
0011
0000
0000
0001
0000
0000
0000
0000
0000
0000
0000
0000
1100
0000
0000
0000
0000
0000
0000
1000
0000
0011
0000
0000
0000
0000
0000
1111
0000
0000
0000
0000
0000
0001
0000
1100
0000
0000
0000
0000
0000
0000
0010
0010
0000
0000
0000
0000
1000
0000
0000
0100
0000
0000
0000
1110
0000
0011
0000
0000
0000
0000
0000
0001
0000
0000
0000
0000
0000
1100
0000
0010
0000
0000
0000
1000
0000
0000
0001
0110
0000
0000
0000
0000
0010
0000
0000
0000
0000
0000
0000
0011
0000
1001
0000
0000
0000
0000
0000
1100
0000
0000
0000
0010
0000
0000
0000
0001
0000
0000
0000
0010
0000
0000
0000
0000
0000
0000
0000
0010
0100
0000
0000
0000
0000
0000
1001
1100
0000
0000
0000
0000
0000
0000
0000
0011
0000
0000
0000
0000
0000
0000
0000
0110
0000
0000
0000
,
1101
0000
0000
0000
0000
0000
0000
0000
0001
0000
0000
0000
0011
0000
0000
0000
0000
0000
0000
0000
0000
1100
0000
0000
0000
0000
0000
0000
0000
0000
0000
0000
1101
0011
0000
0000
0000
0000
0000
0000
0010
0000
0100
0000
0000
0000
0000
0000
1100
0000
0000
0000
0000
0000
0011
0000
0000
0000
0000
0000
0001
0000
0000
0100
0000
0000
1000
0000
2120
0000
0000
0000
0000
0000
0000
0001
0000
0000
0000
0000
0000
0000
0000
0000
0000
0000
0000
0000
0200
0000
0001
0000
0000
0000
0000
0000
0000
0000
0000
0000
0000
0000
0000
0000
0000
0000
0000
0000
0000
0000
0000
0000
0000
0000
0000
0000
0000
0000
0000
0000
0000
0000
0000
0001
0000
0000
0000
0000
3030
0000
0000
0000
0000
0000
0000
0000
0000
0000
0000
0000
1011
0000
0000
0000
0300
0000
0000
0000
0000
0000
0000
0000
0000
0000
0000
0000
1001
0000
0000
0000
0111
0000
0110
0000
0000
1000
0000
0000
0000
0000
0000
0000
0000
0000
0000
0000
0000
0011
0000
0000
0000
0000
0000
0100
0000
0000
0000
0000
0000
1000
0000
0000
,
0101
0000
0000
0000
0000
0000
0000
0000
0000
0000
0000
0000
0011
0000
0000
0000
0001
0000
1100
0000
0000
0000
0000
0000
1100
0000
0000
0000
0000
0000
0001
0000
0000
0010
0000
0000
0011
0000
0000
0000
0000
0000
1100
0000
0100
0000
0000
0000
1001
0000
0000
0010
0000
0000
0000
0000
0001
0000
0000
0000
0000
0000
0000
1100
0010
0000
0000
0000
0000
0001
0000
0000
1110
0000
0000
0000
0000
0000
0000
0000
0000
0000
0000
0000
1111
0000
0000
0000
0000
0000
0001
0000
1100
0000
0000
0000
0000
0000
0000
0010
0000
0000
0000
0000
0011
0000
0000
0000
0000
0000
0000
1100
1100
0000
0000
0000
0000
0000
0000
0000
0000
0000
0000
0000
0000
0000
0011
0000
0000
0000
0000
0000
0111
0000
0000
0000
0000
0000
0000
0000
1100
0000
0000
0000
1011
0000
0000
0000
0011
0000
0000
0000
0100
0000
0000
0000
0000
0000
0000
0000
1100
0000
0000
0000
0000
1100
0000
0000
0011
0000
0000
0000
0000
0000
0000
0000
0100
0000
0000
0000
1101
0000
0000
0000
0010
0000
0100
0000
0000
1000
0000
0000
,
0000
0000
0000
0000
0011
0000
0000
0000
0010
0011
0000
0000
0000
0000
0000
0000
1100
0000
0000
0000
0000
1100
0000
0000
0001
0000
0000
0000
0010
0000
0011
0000
0000
0000
0000
0000
1100
0000
0000
0000
0000
0000
1100
0000
0010
0000
0000
0000
0001
0000
0000
0011
0000
0000
0000
0000
1000
0000
0000
0000
0100
0000
0000
1000
0100
0000
0000
0000
0001
0000
0000
0000
0011
0000
0000
0000
1100
0000
0011
0000
0000
0000
0000
0000
1100
0000
0000
1000
0011
0000
0000
0000
0001
0000
0000
0000
1100
0000
0000
0011
0000
0000
0000
0000
0011
0000
0000
0000
1100
0000
0000
0000
0000
0000
0000
0000
0000
0000
0000
0000
0111
0000
0000
0010
0000
0000
0000
0000
0000
0000
0000
0000
0000
0000
0000
1100
0000
0000
0000
0000
0010
0000
0000
0000
0001
0000
0000
0010
0101
0000
0000
0000
0000
0000
0000
0000
0100
0000
0000
1000
0000
0000
0000
0000
0110
0000
0000
0000
0011
0000
0000
0000
0100
0000
0000
0000
0000
0000
0000
0000
1110
0000
0000
1100
0000
0000
0000
0000
0000
0000
0000
0000
,
0011
0000
0000
0000
0011
0000
0000
0000
0100
0000
0000
0000
1100
0000
0000
0000
1000
0000
0000
0000
0000
0000
0000
0000
0001
0000
0000
0000
0000
0000
0000
0000
0000
0000
0000
0000
0000
0000
0000
0101
0000
0000
1000
0000
0001
0000
0000
0000
0000
0000
0000
0000
1100
0000
0000
0000
0000
0000
0000
0000
0011
0000
0000
0000
0000
0000
0000
0000
1100
0000
0000
0000
1100
0000
0000
0000
0001
0000
0000
0000
1000
0001
0000
0000
0001
0000
0000
0010
0010
0000
0000
0000
1100
1100
0000
0000
0000
0000
0000
0000
1101
0000
0001
0000
0010
0000
0000
0000
0010
0000
0000
0000
1100
0000
0000
0000
0010
1100
0000
0000
0000
0000
0000
0001
0000
0000
0010
0000
0000
0000
0000
0000
0000
0000
0000
0000
0000
0000
1000
0000
0000
0000
0000
0000
0100
0000
0000
0000
0000
0000
0011
0000
0000
0000
0000
0000
0000
0000
0000
0000
0100
0000
0000
0000
0000
1000
0000
0000
1000
0000
0000
0100
0000
0000
0000
0000
0000
0001
0000
0000
0000
0000
0000
0000
0011
0000
0000
0000
1000
0000
0000
0000
,
0111
0000
0000
0000
1100
0000
1000
0000
0000
0000
0000
0000
0011
0000
0000
0000
0000
0000
0000
0000
0101
0011
0000
0000
0000
0000
0000
0000
0011
0000
0000
0000
1100
1100
0000
0000
1100
0000
0000
0000
0010
0000
0000
0000
0001
0000
0000
0000
0001
0000
0000
0000
0000
0000
0000
0000
0000
0000
0000
0000
0100
0000
0000
1001
0000
0000
0000
0000
0000
0000
0000
0000
0010
0000
0000
0000
1100
0000
0000
0000
0000
0001
0000
0000
0110
0000
0000
0000
0001
0000
0000
0000
1010
0000
0000
0000
1100
0000
0000
0000
0001
0000
0000
0000
0000
0000
0000
0000
1111
0000
0000
0000
0100
0000
0000
0000
0011
0000
0000
0000
0000
0000
0000
1100
0100
0000
0000
0000
1000
0000
0000
0000
0000
0000
0000
0000
0001
0000
0000
0000
0010
0001
0000
0000
0100
0000
0000
0000
1000
0000
0001
0000
0000
0000
0000
0000
0010
0000
0000
0000
0000
0000
0000
0000
0000
0000
0000
0000
0000
0000
0000
0221
0000
0000
0000
0000
0000
0000
0000
0000
0001
0000
0000
0000
0000
0000
0000
0000
1000
0000
0000
0000
,
0000
0000
0000
0000
0000
0000
0000
0000
0001
0000
0000
0000
0002
0000
0000
0000
0000
0000
0000
0000
0000
0000
0000
0000
1000
0000
0000
0000
0000
0000
0000
0000
0000
0000
0000
0000
0330
0000
0000
0000
0000
0000
0000
0000
0000
0000
0000
0000
2000
0000
0000
0000
0000
0000
0000
0000
0000
0220
0000
0000
0000
0000
0000
0000
0000
0000
0000
0000
0000
0003
0000
0000
0000
0000
0000
0000
0000
0000
0000
0000
0000
0000
0000
0000
0000
0000
0000
0000
0000
0000
0000
0000
0000
0000
0000
0000
0000
0000
0000
0000
0000
0000
0000
0000
0000
0000
0000
0000
0300
0000
0000
0000
3000
0000
1030
0000
0000
0000
0000
0000
0020
0000
0000
0000
0000
0000
0000
0000
1000
0000
0000
0000
0000
0000
0000
0000
0000
0000
0000
0000
0000
0200
0000
0000
0000
0000
0000
0002
0000
0000
0000
0000
0000
0000
0000
0000
0000
0000
0000
0000
2000
0000
0000
0000
0000
0000
0000
0000
0000
0000
0000
0000
0000
0000
0000
0000
0000
0000
0000
0000
0000
0000
0000
0000
0000
0000
0000
0000
0000
0000
0000
0000
,
0000
0000
0000
0000
0000
0000
0000
0000
0000
0000
0000
0000
0000
0000
0000
0000
3000
0000
0000
0000
0000
0000
0000
0000
1030
0000
0000
0000
0000
0000
1000
0000
0000
0000
0000
0000
0000
0000
0000
0000
0000
0000
0000
0000
0000
0023
0000
0000
0000
0000
0000
0000
0000
0000
0000
0000
0000
0000
0000
0000
0001
0000
0000
0000
2000
0000
0000
0000
0000
0000
0000
0000
0000
0000
0000
0000
0000
0000
0000
0000
0000
0000
0000
0000
0000
0000
0000
0000
0000
0000
0000
0000
0000
0000
0000
0000
0000
0000
0000
0302
0000
0000
0000
0000
3000
0200
0000
0000
0000
0000
0000
0030
0000
0000
0000
0000
0000
1000
0000
0000
1000
0000
0000
0000
0000
0000
0000
0000
0000
0000
0000
0000
0000
0000
0000
0000
0000
0000
0000
0000
0000
0000
0000
0000
2000
0000
0000
0000
0000
0000
0303
0000
0000
0000
0000
0000
0010
0000
0000
0000
0000
0000
0000
0000
0000
0000
0000
0000
0000
0000
0000
0200
0000
0000
0000
0000
0000
0000
0000
0000
0000
0000
0000
0000
3000
0000
0000
0000
0000
0002
0000
0000
,
1000
0000
0000
1000
0000
0000
0000
0000
0000
0000
0000
0000
0000
0000
0000
0000
0000
0000
0000
0000
0000
0000
0000
0000
0000
0000
0000
0000
0000
0000
0000
0000
2010
0000
0000
0000
0000
0000
0000
0000
0000
0000
0000
0000
0000
0000
0000
0000
0010
0000
0000
0000
0000
0000
0000
0000
0000
0000
0000
0000
0010
0000
0000
0000
0000
0000
0000
0000
0000
0000
0000
0000
3000
0000
0000
0000
0010
0000
0000
0000
0000
2003
0000
0000
0000
0000
0000
0000
0000
0000
0000
0000
0000
0000
0000
0000
0000
0000
0000
0000
0010
0000
0000
0000
0000
0000
0000
0000
0002
0000
0000
0000
0020
0000
0000
0000
0000
0000
0000
0000
0000
0000
0000
0000
0000
0000
3000
0000
0000
0000
0000
0000
0000
0000
0000
0000
0000
0000
0000
0000
0000
0000
0000
0000
1000
0000
0000
0000
0000
0000
0000
0000
0000
0000
0000
0000
0000
0000
0000
0000
0000
0000
0000
0000
0000
0003
0000
0000
0000
0000
0000
0000
0000
0000
0000
0000
0000
2000
0000
0000
0000
0000
0000
0000
0000
0000
0000
0000
0000
0000
0000
0000
,
0000
0000
0000
0000
0000
0000
0000
0000
0000
0000
0000
0000
0032
0000
0000
0000
0000
0000
0000
0000
0010
0000
0000
0000
0000
0000
0000
0000
0000
0000
0000
0000
0000
0000
0000
0000
0000
0000
0000
3000
0010
0000
0000
0000
0000
0000
0000
0000
0000
0000
0000
0000
0000
0000
0000
0000
0010
1000
0000
0000
0000
0000
0000
0000
0000
0000
0000
0000
0000
0000
0000
0000
0000
0000
0000
0000
0000
0000
0000
0000
0000
0300
0000
0000
0000
0000
0000
0000
0000
0000
0000
0000
0000
0000
0000
0000
1100
0000
0000
0000
0000
0000
0003
0000
0000
0000
0000
0000
0000
0000
0000
0000
0000
0000
0000
0000
0000
0000
0000
0000
1000
0000
0000
1001
0000
0000
0000
0000
0010
0100
0000
0000
0000
0000
0000
0011
1001
0000
0000
0000
0100
0000
0000
0000
1100
0000
0000
0000
0000
0000
0000
0000
0001
0011
0000
0000
0000
0000
0000
0000
0001
0000
1000
0000
0000
0100
0000
0000
0000
0000
0000
0010
0000
0000
0001
0000
1101
0000
0000
0000
0011
0000
0000
1000
0000
0000
0000
0000
1011
0000
0000
0000
,
0000
0000
0000
0001
1101
0000
0000
0000
0010
0000
0000
0000
1100
0000
0000
0000
0001
0000
0000
0000
0001
0101
0000
0000
1110
0000
0000
0000
0000
0000
0011
0000
0000
0000
0000
0000
1011
0000
0000
0000
1000
0000
1100
0000
0100
0000
0000
0000
0001
0000
0000
0010
0000
0000
0000
0000
0011
0000
0000
0000
0000
0000
0000
1100
1110
0000
0000
0000
0000
0011
0000
0000
0000
0000
0000
0000
0011
0000
0100
0000
0000
1000
0000
0000
0000
0000
0000
0000
0000
0000
0000
0000
0000
0011
0000
0000
0001
0000
0000
1000
0000
0000
0100
0000
0010
0000
0000
0000
0001
0000
0000
0000
1101
0000
0010
0000
0000
0000
0000
0000
0111
0000
0000
1000
1000
0000
0000
0000
1100
0000
0000
0000
0101
0000
0000
0011
0011
0000
0000
0000
0000
0000
0000
0000
0000
0000
0000
0000
1100
0000
0000
0000
0000
0000
0000
0000
0001
0000
0000
0000
1101
0000
0000
0000
0010
0000
0000
0000
0000
0000
0000
0000
0000
0000
0000
0000
0000
0000
0000
0000
1111
0000
0000
0000
1000
0000
0000
0000
0000
0011
0000
0000
,
0100
0000
0000
0100
0000
0000
0000
0000
0011
1000
0000
0000
0100
0000
0000
0000
1100
0000
0011
0000
0011
0000
0000
0000
0100
0000
0000
0000
0001
0000
1000
0000
0000
0000
0000
0000
0000
0000
0000
0011
0000
0000
0000
0000
0101
0000
0000
0000
1000
0000
0000
0000
0000
0000
0100
0000
0000
0000
0000
0000
0001
0000
0000
0010
0000
0000
0000
0000
1000
0000
0000
0000
0000
0000
0000
1100
0001
0000
0000
0000
0000
0000
0000
0000
1100
0000
0000
0011
0000
0000
0000
0000
0000
0000
0000
0000
1111
0000
0000
0000
0000
0000
0000
0000
0011
0000
0000
0000
0011
0000
0000
0000
1101
0000
0000
0000
0010
0000
0000
0000
0000
0000
0000
1100
0011
0000
0000
0000
1100
0000
0000
0000
0001
0000
0000
0000
0011
0000
0000
0000
0000
0000
0000
0000
0110
0000
0000
0000
1000
0000
0000
0000
0000
1100
0000
0000
0000
0000
0000
0000
0000
0000
0000
0000
0010
0000
0000
0000
0000
0000
0000
0000
0000
0000
0000
0000
0000
1101
0000
0000
0011
0000
0000
0000
0000
0000
0000
0000
1000
0000
0000
0000
,
0001
0000
0000
0110
0000
0000
0000
0000
0000
1000
0000
0000
1101
0000
0000
0000
0000
0000
0000
0000
0001
0000
0000
0000
0011
0000
0000
0000
0110
0000
1000
0000
0000
0100
0000
0000
1000
0000
0000
0000
0001
0000
0000
0000
0010
0001
0000
0000
0010
0000
0000
0000
0000
0000
1100
0000
1100
0000
0000
0000
0000
0000
0000
0000
0011
0000
0000
0000
0000
0011
0000
0000
1100
0000
0000
0000
0000
0000
0000
0000
0111
1100
0000
0000
0001
0000
0000
0000
0010
0000
0001
0000
1000
0000
0000
0000
0010
0000
0000
0000
1111
0000
1100
0000
0000
0000
0000
0000
0001
0000
0000
0000
1100
0000
0000
0000
0000
0011
0000
0000
0000
0000
0000
0000
1111
0000
0000
0000
0000
0000
0000
0000
1100
0000
0000
0000
0021
0000
0001
0000
0000
0000
0000
0000
1100
0000
0000
0000
0000
0000
0000
0000
0001
1100
0000
0000
0000
0000
0000
0000
0100
0000
0000
0000
1000
0001
0000
0000
0000
0000
0000
0000
0000
0000
0001
0000
0000
0000
0000
0000
0000
0000
0000
0000
0000
0000
1100
0000
0000
0000
0000
0000
,
0000
0000
0000
0000
0000
0000
0000
0000
0000
0001
0000
0000
0030
0000
0000
1100
0000
0000
0000
0000
0000
0000
0000
0000
1101
0000
0000
0000
0000
0000
0011
0000
0001
0000
0000
0000
1010
0000
0000
0100
0100
0000
0000
0000
0100
0000
0000
0000
0000
0000
0000
0000
0011
0000
0000
0000
0001
0111
0000
0000
1100
0000
0000
0000
0000
0000
0000
0000
1000
0000
0000
0000
0000
0000
0000
0000
0111
0000
0011
0000
1100
0000
0000
0000
0001
0000
0000
1100
0010
0000
0000
0000
0011
0000
0000
0000
1100
0000
0000
0011
1100
0000
0000
0000
0001
0000
0000
0000
1110
0000
0000
0000
0011
0000
0000
0000
1100
0000
0000
0000
0011
0000
0000
0000
1001
0000
0000
0000
0110
1000
0000
0000
0100
0000
0000
0000
0001
0000
0000
0000
1100
0001
0000
0000
0010
0000
0000
0000
0000
0000
0000
0000
1101
0000
0000
0000
1100
0000
0000
0000
0000
0000
0000
0000
1000
0001
0000
0000
0000
0000
0000
0010
1111
0000
0000
0000
0000
0000
0000
0000
1001
0000
0000
0000
0110
0000
0100
0000
1000
0000
0000
0000
,
1100
0000
0000
0000
0000
0000
0011
0000
0000
0000
0000
0000
0011
0000
0000
1100
0000
0000
0000
0000
1100
0000
0000
0000
0000
0000
0000
0011
0000
0000
0000
0000
0100
0000
0000
0000
1111
0000
0000
0000
0010
0000
0000
0000
0000
0000
0000
0000
0001
0000
0000
0010
0000
0000
0000
0000
0000
0000
0000
0000
0121
0000
0000
0000
0000
0000
0000
0000
0000
1000
0000
0000
0000
0000
0000
0101
0001
0000
0000
0000
0000
0000
0000
0000
1100
0000
0000
0000
0000
0000
0000
0000
0001
0000
0000
0000
1101
0000
0000
0000
1030
0000
0001
0000
0100
0010
0000
0000
0000
0000
0000
0000
0000
0000
0000
0000
0111
1100
0000
0000
0000
0000
0000
0000
0000
0000
0001
0000
1100
0000
0000
0000
1010
0000
0000
0200
0011
0000
1000
0000
0010
0000
0000
0000
0000
0000
0000
0000
0000
0000
0000
0000
1011
0011
0000
0000
0000
0000
0000
1000
0000
0000
0000
0000
0000
0000
0000
0000
0011
0000
0000
0000
0000
0000
0000
0000
1011
0000
0000
0000
0000
0000
0000
0000
0000
0000
0000
0000
0000
0000
0000
0000
,
0011
0000
0000
2000
0000
0000
0000
0000
0011
0000
0000
0000
0000
0000
0000
0000
0000
0000
0000
0000
0011
0000
0000
0000
0000
0000
0000
0000
0001
0000
0300
0000
0000
0000
0000
0000
0011
0000
0000
0000
0000
0000
0000
0000
0000
0000
0000
0000
0000
0000
0000
0000
0011
0000
0000
0000
0000
0000
0000
0000
0011
0000
0000
0000
0000
0000
0001
0000
0000
0000
0000
0000
3000
0000
0000
0000
0011
0000
0000
0000
0000
0000
0000
0000
0100
0000
0000
0000
0000
0000
0000
0000
0000
0000
0000
0000
0000
0000
0000
0000
0011
0000
0000
0000
0011
1000
0000
0000
0000
0000
0000
0000
0000
0000
0000
0000
0000
0000
0000
0000
0011
0000
0000
0000
0010
0000
0000
0000
0000
0000
0000
0000
0000
0000
0000
0000
0000
0000
0000
0000
0000
0000
0000
0000
0000
0000
0000
0000
0011
0000
0220
0000
0000
0000
0000
0000
0000
0000
0000
0000
0000
0000
0000
0000
0000
0000
0000
0000
0000
0000
0000
0000
0000
0000
0000
0000
0000
0000
0000
0000
0000
0000
0000
0002
0000
0000
0000
0000
0000
0000
0000
0000
,
0000
0000
0000
0000
0000
0000
0000
0000
0000
0330
0000
0000
0000
0000
0000
0000
0000
0000
0000
0000
0000
1000
0000
0000
0000
0000
0000
0000
0000
0000
0000
0000
0000
0000
0000
0000
0000
0000
0000
0000
0000
0000
0000
0000
0000
0000
0000
0000
0203
0000
0000
0000
0000
0000
0010
0000
0000
0000
0000
0000
0000
0000
0000
0000
0000
0000
0000
0000
0000
0000
0000
0000
0000
0000
0000
0000
0000
0000
0000
0000
0000
2001
0000
0000
0000
0000
0000
0000
0000
0000
0000
0000
0000
0000
0000
0000
0000
0000
0000
0000
0000
0000
0000
0000
0000
0000
0000
0000
0000
0000
0000
0000
0000
0000
0000
0000
0000
0000
0000
0000
0000
0000
0000
0000
0000
0000
0000
0000
0000
0000
0000
0000
3311
0000
0000
0000
0001
0000
0010
0000
0001
0000
0000
0000
0010
0000
0000
1100
0000
0000
0000
0000
0000
0001
0000
0000
1101
0000
0000
0010
0011
0000
0000
0000
0010
0000
0000
0000
1100
0000
0000
0000
1110
0000
0000
0000
0010
0000
0000
0000
0011
0000
0000
0000
1100
0000
0000
0000
0000
1100
0000
0000
,
0011
0000
0000
0000
0011
0000
0000
0000
1100
0001
0000
0000
0000
0000
0000
0000
0001
0000
0000
0000
0000
0000
0000
0000
1100
0000
0000
0000
0000
0000
0000
0000
1100
0000
0000
0000
1000
0000
0000
0000
0101
0000
0000
0000
0000
0010
0000
0000
0000
0000
0000
0001
0000
0000
0000
0000
0000
1000
0000
0000
0000
0000
0000
0000
0000
0000
0000
0000
0000
0000
0000
0000
0001
0000
0000
0000
0000
0000
1100
0000
0000
0000
0000
0000
0000
0000
0000
0010
0000
0000
0001
0000
0000
0000
0000
0000
0000
0000
0000
1100
0000
0000
0000
0000
0000
0001
0000
0000
0010
0000
0000
0000
0000
0000
1000
0000
0011
0000
0000
0000
0100
0000
0000
0000
0000
0000
0000
0000
0000
0011
0000
0000
0000
0000
0000
0000
0011
0000
0000
0000
0000
1100
0000
0000
0000
0000
0000
0000
0000
0000
0001
0000
0000
0000
0000
0000
0010
0000
0000
0000
0000
0000
1100
0000
0011
0000
0000
0000
0000
0000
0000
0000
0000
0000
0000
0000
0000
0011
0000
0000
1000
0000
0000
0000
0000
0000
0000
0000
0000
1101
0000
0000
,
0110
0000
0000
0000
0001
0000
0010
0000
0000
0000
0000
0000
0000
0000
0000
0000
1101
0000
1000
0000
0000
0101
0000
0000
0111
0000
0000
0000
0000
0000
0000
0000
0010
0000
0000
0000
0001
0000
0000
0000
0011
0000
0000
0000
1100
0100
0000
0000
0100
0000
0000
0000
1000
0000
0001
0000
0000
0000
0000
0000
0000
0000
0000
0000
0011
0000
0000
0000
0000
0000
0000
0000
0120
0000
0000
0000
1000
0000
1101
0000
0001
0000
0000
0000
0000
0000
0000
0001
0001
0000
0000
0000
0000
0000
0000
0000
0000
0000
0000
1100
0000
0000
0000
0000
0000
0000
0000
0000
0001
0000
0000
0000
0000
0000
0000
0000
1101
0000
0000
0000
1100
0000
0000
0000
0000
0000
0000
0000
0030
0000
0000
0000
0011
0000
0000
0011
0000
0000
0000
0000
1100
0000
0000
0000
1100
0000
0000
0000
0010
0000
0000
0000
0000
0000
0000
0000
0101
0000
0000
0000
1100
0000
0010
0000
0000
0000
0000
0000
0002
0000
0000
1000
0010
0000
0000
0000
0010
0000
0000
0000
1110
0000
0000
0000
0000
0000
0000
0000
0000
0000
0000
0000
,
0000
0000
0000
0000
1110
0000
0000
0000
0000
0000
0000
0000
0000
0000
0000
0000
0000
0000
0000
0000
0000
0000
0000
0000
0000
0000
0000
0000
0000
0000
0003
0000
0000
0000
0000
0000
0000
0000
0000
0000
0000
0000
0000
0000
0000
0000
0000
0000
0010
0000
0000
0000
1100
0000
0000
0000
0000
0000
0000
0000
0101
0000
0000
0000
1010
0000
0000
0000
0000
0000
0000
0000
1100
0000
0000
0000
0000
0000
0000
0000
0011
0000
0000
0000
0000
0000
0000
0000
0000
0000
0000
0000
0000
0000
0000
0000
1100
0000
0000
0000
1000
0000
0000
0000
0011
0000
0000
0000
1000
0000
0000
0000
0100
0000
0000
0000
0000
0000
0000
0000
0000
0000
0000
0000
1101
0000
0000
0000
0000
0000
0000
0000
0010
0000
0000
0000
0000
0000
0000
0000
0000
0000
0000
0000
1101
0000
0000
0000
0000
0000
0000
0000
0000
0000
0000
0000
0000
0000
0000
0000
1101
0000
0000
0000
1100
0000
0000
0000
0001
0000
0000
0000
0011
0000
0000
0000
0000
0000
0000
0000
1100
0000
0000
0000
1101
0000
0000
0000
0000
0000
0000
0000
,
0011
0000
1100
0000
0011
0000
0000
1101
0000
0011
0010
1100
0000
1100
0020
0001
0000
0000
0000
0000
0001
0000
0000
0000
0000
1101
0000
0000
0031
0000
1100
0000
0100
0011
0000
1000
0000
0111
0000
1000
0000
1000
0111
0000
1001
0000
0111
0000
,
0000
1000
0001
0111
0000
0000
1000
1000
0101
0020
0000
0000
0000
0000
0000
1000
0000
0000
0100
0000
0001
1000
0100
0000
0001
0030
0000
1100
0000
0011
1100
0000
0001
0000
0011
0000
1100
0000
1001
0011
0000
1100
0000
0101
0000
1010
1100
0010
,
0000
0000
0001
1100
0000
0111
0000
0000
1002
0110
1100
0000
0010
0000
1110
1100
0010
0000
1100
0010
0000
1110
0000
0000
0010
1100
1100
0010
0000
1110
0000
1100
0000
0010
0000
1110
0000
1100
0000
0003
0010
0000
0001
0000
0100
0000
0000
0001
,
0000
1000
0100
0010
0011
0000
1101
0000
0011
0000
0111
1100
1000
0011
0010
1100
1100
0000
0011
0011
1100
1100
0001
0000
0000
0011
1100
1100
0000
0001
0010
0000
1100
0000
1101
0000
0011
0000
0100
1000
0000
0010
1101
1000
0101
0000
1011
0100
,
0100
1000
0000
0011
0011
1100
1000
0111
0000
1100
0000
0001
1000
0111
0000
0000
1101
0000
0011
0111
0000
1000
1100
0000
0011
0000
1100
0100
1000
0000
0011
0011
0000
1100
0000
0001
0000
0010
0000
1100
0001
0001
0100
1000
0100
0011
0000
0101
,
1000
0001
0000
0000
0010
0100
0020
1001
0000
0000
0100
0000
0100
1000
0000
0000
0001
0100
0001
0000
0001
1100
0030
1101
0010
0011
1000
0100
1100
0001
0011
0000
0000
1100
1100
0000
0011
0000
0000
0100
0000
1001
1000
0110
0000
0000
0011
0100
,
1100
0000
0000
0011
0000
0100
1100
1000
0011
0011
0000
0000
1100
0000
0011
0000
1011
0100
0000
1100
0000
0011
0000
1100
0011
0011
1000
0000
0100
1100
0011
1100
0011
0001
1110
1000
0020
0101
0000
0201
1000
0000
0001
0000
0000
0000
0000
0000
,
0001
1000
0000
0000
0000
0330
1100
0000
0001
1000
0000
0000
0000
0100
0011
0011
0100
1100
0000
0001
0011
1100
0100
1011
0000
1110
0000
0011
1100
0000
1101
0010
0111
0000
1000
0100
0011
0000
0010
1100
1100
0001
0010
0010
0000
1100
0000
0001
,
1100
0011
0000
1100
0000
0000
0002
1010
0100
0000
0110
0000
1100
0000
0020
0000
0000
0000
0000
0000
0100
1000
0000
0000
0000
0000
1133
0000
0000
0001
0000
1000
0000
1100
0000
0000
0001
0011
0011
0100
1000
1100
0000
0011
0000
0000
1100
0000
,
0011
0000
0010
0000
1100
0000
0001
0011
0000
0000
1100
0000
1101
0011
0000
0011
0000
1100
0000
0001
0001
0010
0000
1100
1100
0001
0000
1001
0000
0000
0000
0101
1101
0000
0000
0000
0011
1101
1100
0000
0011
0000
1000
0011
0100
1100
0111
0000
,
1000
0000
0001
0001
0010
0011
0000
1100
0000
0011
0011
1100
0100
1000
0000
0011
0001
1110
0000
1000
0000
0000
0111
0001
1100
0000
0011
0010
1100
0000
1100
0011
0001
0000
0000
1100
0000
0000
0011
1100
1100
0000
0000
0001
0000
1101
0000
0011
,
0000
0000
1101
1100
0001
0001
0010
1100
0100
1000
0000
0001
0011
0000
1100
0000
0000
0001
0011
0000
1100
0011
0000
0001
1110
0000
1100
0000
0011
0011
1100
0000
0000
1101
0000
0011
0000
1000
1100
0000
0101
0011
0011
0000
1100
1100
0000
0000
,
0011
0011
1100
0100
1000
0000
0001
0000
0010
0100
1000
0100
0001
0001
0001
0010
0100
1000
0001
1100
0000
0011
0000
1111
0000
0101
1000
0010
0000
1101
0010
0001
1010
0000
1000
0111
0000
0000
0011
1100
1000
0000
0101
0000
0001
0001
0000
1100
,
1000
0000
0111
0000
0000
0000
1101
1000
0101
0011
0000
0000
0000
1100
0000
0001
0001
1010
0000
0100
1101
0011
0000
0000
0000
1100
0001
0011
0000
1100
0000
1100
0000
0011
0011
1000
0100
0000
0001
0010
0101
1100
0011
0000
0000
1011
0100
0110
,
0001
1000
1100
0000
0001
0011
0011
0000
0000
1100
0000
0011
0000
0010
1100
1100
0000
0011
0000
0011
0100
1000
1000
0000
0001
0000
0101
0000
0001
0000
1101
1100
0000
0000
1101
0011
1000
0100
0011
0000
1101
0000
0010
0000
1011
0100
0000
1100
,
0001
0011
0000
0000
1001
0100
0000
1111
0000
0011
1100
0000
0100
1000
0011
0000
1101
0010
0000
1101
0010
0001
0000
1100
0000
0001
0000
0000
0000
1101
0001
1100
0000
0011
1100
0000
0001
1111
0000
0000
1111
0000
1101
0010
0000
1111
0000
0001
,
0000
1110
0000
1011
0000
1000
0011
0100
1100
0011
0011
0000
0100
0100
1000
0001
0001
0010
1101
0000
0001
0000
1110
0000
1111
0000
0100
1001
0010
0110
0000
1001
0000
1111
0000
0011
1100
1000
0100
0011
0000
1111
0000
0000
1100
0011
0000
0000
,
1111
0000
1101
0000
0010
0000
0001
1100
0000
0001
0000
0000
1101
0000
0000
0011
0000
1100
0000
0000
0000
0011
0000
1100
0011
0001
0010
1100
0100
0011
1000
0000
1111
0000
1000
0000
0111
0000
0011
1100
0000
1111
0000
0100
1000
0000
0011
0000
,
0000
1101
0000
0101
1000
0010
0000
1101
0010
0000
0001
1000
0111
1000
0100
0000
0011
0000
0000
1100
1001
0000
0101
1011
0000
1000
0100
0001
0011
0000
1000
1100
0000
0101
0000
1011
0000
0000
1100
0011
0000
1000
0001
0101
1100
0000
0000
0011
,
0000
1000
1100
0000
0101
0000
1001
0000
0000
0000
0011
1101
1000
0000
0111
0000
0100
0000
1000
1001
0010
0001
0000
1100
0000
1111
0000
0000
0100
1001
0011
1000
0010
1100
0000
0101
0000
0011
1000
0100
1011
0000
0001
0000
1010
1000
0101
0000
,
0001
0010
1000
0100
1001
0000
0101
0000
1000
1000
0000
0101
0011
0000
0000
1000
0000
0101
0100
0001
0010
0000
0000
1101
0000
0111
0001
1100
1000
0000
0001
0010
0011
0000
1100
0000
0101
0011
0000
1000
0000
1100
0001
0011
0000
0000
1100
1101
,
0000
0011
0000
1000
0111
0000
1000
0001
0000
0000
1110
0020
0000
0001
0000
0001
0000
0000
0000
1100
0001
0000
0000
0100
1000
0030
0011
0000
1100
0001
0010
1100
0000
0001
0000
0110
1000
0000
0011
0000
1100
0000
0000
0000
0101
0000
1000
0001
,
0000
0010
0000
1101
0000
0000
0010
0000
0101
0000
0000
0010
0011
1100
0000
0010
0001
0010
0000
1110
0000
0002
0000
0010
0010
0000
0000
0020
0000
1100
0000
0000
0000
1000
0000
0200
0000
0000
0000
1000
0000
0000
0000
0000
0000
0000
2000
0000
,
0003
0000
0000
0000
0030
0000
0010
0000
0000
0000
0000
0010
0000
0000
0000
0010
0002
0000
0000
3000
0000
0000
0300
0000
0000
0000
0020
0000
0000
0003
0000
0000
2000
0000
0000
0000
0000
0000
0000
0000
0000
0000
0000
0000
0000
0000
3000
0000
,
0101
0000
0030
1110
0000
0000
0000
0000
0000
0110
0110
0000
0110
0000
0000
2000
0002
0100
0010
0000
0010
0100
0000
0000
0000
0000
0000
0000
0000
3223
0000
0001
0000
0000
0000
0000
0000
0002
0000
0000
0000
0000
0000
0000
0000
0000
0000
0000
,
0000
0000
0000
1000
0000
0000
0000
1000
0000
0330
0000
1000
0100
0000
0000
0000
1100
0003
0000
2020
0000
0000
0000
0200
0000
0000
0000
0000
0000
0000
0000
0000
0000
0000
3000
0000
0002
0000
0000
0000
0000
0000
0000
0000
0000
0000
0000
0303
,
2000
0000
0000
0000
0030
0200
0000
0000
0000
0000
0002
0000
0000
0000
0000
0000
0000
0000
0000
0300
0000
0000
0000
0000
0000
3000
0220
0000
0000
0000
0000
0000
0000
0000
0000
0000
0000
0000
0003
0030
0300
0000
0001
0000
0110
0000
0011
0000
,
1000
1100
0000
0011
0001
1100
0001
0010
0000
1100
0000
0101
0011
0110
1100
1000
0011
0011
0000
1000
0100
1101
0010
0100
0000
0000
1101
0000
0001
0000
1100
1100
0000
0011
0001
0000
1100
0000
1111
0000
0000
0000
1101
0001
1110
0000
0001
0000
,
0100
1000
0100
0001
0010
1000
1101
0000
0011
0000
0000
1100
0000
0012
0100
1000
0000
0100
0000
0010
1000
1200
0000
0010
0000
0000
1003
0000
1000
0000
0010
0000
1000
0001
0010
0000
0300
2000
0000
0000
0010
0010
0000
0000
0100
0001
0000
0010
,
0000
0100
0000
3000
0001
0011
0000
1100
1000
0101
0010
0000
1100
0000
0011
0000
1101
0100
0011
0010
0100
0000
1100
0001
0010
1111
0000
1100
0000
0011
0000
1100
1100
0001
0011
0000
1000
0000
1101
0000
0011
0000
1100
1101
0000
0011
0010
1100
,
0011
1000
0000
1001
0100
0010
0011
1000
0100
0001
0011
0000
1100
0000
0000
0001
0000
0211
1000
0010
1000
0000
0000
1010
0000
0001
0000
1000
0000
0010
1000
0002
0000
0010
0000
0000
1000
0000
0000
0000
1010
0000
1300
0000
0010
0000
0000
0000
,
1000
1000
0010
0000
0000
0000
1000
1100
0010
0000
0010
0000
1103
0000
0011
0000
1110
0000
0000
1001
0000
0110
0000
0000
1101
0100
0000
0010
1101
1100
0011
0000
1100
0010
0000
1111
0000
1100
0000
0011
0000
1100
1100
0000
0011
0000
1111
0000
,
1011
0000
1100
0000
0000
0000
0100
1000
0000
0001
0001
0000
0100
0001
1000
0001
0211
0000
0000
1000
0000
0011
0000
0000
1010
1000
0000
0011
0000
0000
0000
1000
1000
0011
0000
1000
0002
0000
0000
0000
0000
0000
0000
0010
0000
2000
0000
0010
,
0000
0000
0000
0010
0000
0000
0000
0000
0010
0000
0000
0000
3000
0000
0010
2000
0000
0000
0010
0000
0000
0000
0010
0000
0000
0000
0000
0010
0000
0000
0300
0010
0000
0000
0000
3013
0000
0000
0000
0000
1000
0011
0000
0000
0000
1111
0000
0100
,
0011
0000
1100
0011
0011
1100
0000
1101
0012
0010
0000
1100
0000
0000
0010
0000
0100
1100
0000
2010
0000
0000
0000
0010
0003
0000
0000
0000
0000
0110
0000
0000
0002
0000
3010
0000
0000
0000
0010
0000
0000
0000
0000
0200
0023
0000
0000
0000
,
0000
0000
0000
0000
0000
0000
0000
0000
0301
0000
0030
1000
1200
0000
0000
0000
1000
0020
0000
0000
0000
1000
0000
0000
0000
0000
0000
1000
0300
1030
0000
0000
1000
0010
0100
0002
0000
1000
0110
0000
0000
0000
0110
0000
0100
0000
2000
0000
,
0110
0000
0000
0000
0110
0000
0000
0000
0000
0000
0110
0100
0000
0000
0110
0000
0000
0000
0000
0110
0000
3020
0000
0000
0000
0000
0000
0000
0000
0000
0000
0200
0000
1000
0000
0000
0003
1000
0000
0000
0000
0000
0000
1000
0000
0000
0030
1301
,
0000
0010
0100
1000
1000
0000
0011
1000
1100
0000
0010
0001
1100
1000
0000
0000
0000
0100
0000
0000
0000
0000
0000
0100
0000
1111
0000
0000
1100
0000
0011
0000
1100
0101
0011
0011
1100
0100
1000
0011
0001
1100
0000
1101
0000
0010
1111
0000
,
1101
0000
1001
0100
0010
0000
1100
0000
0000
0000
1101
0010
1110
0000
0000
0000
1100
0001
0010
0000
0000
1101
0000
1100
0000
0011
0000
1100
0000
0000
0000
1111
0001
0110
1000
0000
1100
0000
0000
0011
0100
0000
1000
0100
1001
0000
0001
0000
,
0011
0000
1100
1001
0000
0000
0000
0011
0100
1100
0000
0001
0011
1000
0100
1100
0011
0000
0000
1111
0000
0001
1100
0010
1000
0100
0011
0000
0011
0000
1100
0000
0000
0001
0000
0011
0000
0100
1101
0001
0010
0001
1110
0000
1111
0000
1100
0011
,
0010
0000
0000
1100
0000
0001
0000
1111
0000
0011
0011
0000
0000
0000
0000
1111
0000
0001
0000
1000
0000
0211
0000
0000
0000
0011
0000
0000
2000
0000
0011
0000
0000
0000
0000
0300
0010
0201
0000
3000
0000
0000
0011
1000
0000
0000
0000
0011
,
0001
0300
0000
0000
0201
0010
0000
0000
0000
1011
0000
0000
0002
0000
0000
0000
0000
1300
0000
0000
0020
1000
0000
0000
0000
0000
1003
0000
0000
0000
0000
0000
1100
0000
0000
0000
1100
0000
0030
0100
0000
0000
0000
1100
0002
0000
0000
1100
,
0000
0000
0000
0000
1000
1000
0000
0000
0000
0203
0010
0000
0000
0000
0000
0002
1000
0000
0000
0000
0300
1000
0000
0000
0000
0000
0003
1220
0000
0000
0002
0000
1000
0000
0000
0000
0000
0000
1000
0000
0000
0000
0000
0000
1300
0000
0100
0000
,
0000
0000
0000
0000
0100
1000
0000
0000
0033
1100
0000
0010
0000
0000
1100
1102
0000
0020
0000
0000
1100
0000
0000
0000
0000
0000
0000
0000
0000
0000
0000
0000
0000
0000
0000
0000
2003
0000
0000
0000
0000
0000
0000
0000
0000
0000
0000
0000
,
0000
0000
0030
0000
3001
0000
0000
1000
0000
0200
0000
0000
0000
0000
0010
1000
0000
0012
0000
0000
0000
0000
0300
1010
0000
0000
0010
0000
0000
0000
0000
0000
0010
0000
0000
0200
1000
0010
0000
0000
0000
0000
0000
2010
0000
0003
0000
0000
,
0010
0000
0000
0000
0000
0000
0010
0000
0000
0000
0300
0000
0000
0010
0002
0000
3000
0000
0000
0010
0000
0000
0000
0000
0000
0000
0220
0000
0000
0003
0000
2000
0001
0000
0000
0000
0000
0000
0000
0000
0000
0000
0000
0000
0002
0330
0000
3000
,
0010
0000
0000
0000
0000
0100
0010
1003
0000
0000
0011
0100
0000
0000
0010
1000
0000
0000
0000
0000
0011
0100
0000
0010
0000
0011
0000
0000
0010
0000
0111
0000
0000
0000
0000
0011
0000
0000
0100
1000
0011
0000
1011
0000
0100
1100
0011
0011
,
1100
1100
0000
0011
0000
0000
0000
0001
1000
0000
0000
0000
0000
0101
0011
0000
1100
0000
0000
1111
0000
1100
0011
0011
0000
1100
1000
0000
0011
0011
1100
0000
0001
0011
0000
1100
1100
0000
0011
0011
1100
1100
0000
0001
0000
0010
0000
1100
,
1100
0000
0011
0000
1100
1100
0000
0011
0001
1100
0000
0011
1000
0000
1101
0000
0001
0010
1000
0000
1101
0001
0000
1010
0000
1100
0001
0000
0011
1000
0022
0000
0000
1000
0000
0000
0200
0000
0000
1000
0000
0000
1000
0000
0000
0000
0000
0000
,
0000
0000
0003
0000
0331
0000
0000
0000
0111
0000
0000
0100
0011
0000
1100
1000
0000
0011
0000
0000
1100
0000
0220
0001
0000
1000
0000
0002
0000
0000
1000
0000
0000
0300
0030
0000
0200
1000
0000
0000
0000
0000
0000
0000
0000
0000
0003
0010
,
0000
0000
0000
1000
0300
0011
0000
0000
1100
0000
0011
0000
0000
1100
0000
0011
0000
1100
0000
1001
0011
0000
0100
1000
1000
0101
0011
0000
0111
1000
0000
0001
0011
0000
0000
1001
1100
0000
0000
0011
0000
1101
0000
0011
0001
0110
0000
1100
,
0011
0000
1011
0100
1100
0000
0011
0000
1100
1000
0100
0011
0000
0100
0000
1100
0001
0011
0000
1000
0100
1000
0101
0000
0011
0010
1100
1100
0011
0011
1100
0000
1100
0011
0011
0000
1100
0100
0001
0011
0000
0000
1100
1100
0000
0001
0011
0000
,
1100
0000
0101
0000
0000
1101
0010
0001
0000
1100
0001
0011
0000
0100
1000
0001
0011
0100
0000
0000
1101
0011
0010
0000
1100
1000
0011
0011
0000
1100
0000
0001
0011
0000
1100
0100
0000
0011
0000
0000
1100
1100
0011
0011
1000
0100
1100
0011
,
0001
0000
1100
0000
0000
1011
0100
1101
0000
0011
0010
1100
1000
0011
0101
0000
1110
0000
1100
0011
0011
1100
1000
0100
0000
0011
0011
0000
1101
1100
0010
0010
0000
0101
1100
1000
0001
0001
0000
1100
0000
0000
0011
0001
0000
0000
0000
2000
,
0000
0011
0220
0000
0000
0000
0000
0000
0000
0000
3000
0002
0000
0000
1000
0000
0330
1000
0000
0000
0000
1100
0000
0000
0200
0020
0003
0000
1000
0000
0000
0000
0000
0000
0000
1000
0000
0300
1000
0000
0000
0100
0030
0000
1000
0000
1100
0000
,
0000
0010
0000
0001
0000
1100
0000
0011
1101
0100
1000
0000
0000
0011
0000
1100
0000
0000
0000
0001
1100
0000
0000
0000
1011
0000
0101
1100
0000
0011
0000
0000
1111
0000
0001
0000
1110
1100
0011
0000
1101
0010
0000
0011
1100
1100
0011
0001
,
0010
0000
1100
0100
0000
0011
0011
1100
1100
0000
0011
0000
0000
1000
0101
0000
0000
1111
0000
1101
0000
0001
1100
0010
0100
1000
0011
0011
1100
0000
0000
0011
1001
1100
0010
0011
0001
0000
1100
0000
0011
0000
1100
0000
1100
0011
0000
1110
,
0000
0100
0000
0011
1010
0100
0000
0001
0010
0001
1100
0000
0000
0000
0101
1000
0000
0000
1111
0000
0000
1001
0000
0011
1100
0000
1111
0000
0001
1110
0000
0011
1100
0000
1001
0110
0001
0110
0000
1100
0001
0000
0011
0000
1110
0000
1100
0001
,
0011
0000
0000
0100
1101
1000
0000
0001
0000
0000
1101
1001
0000
0001
0000
1100
0000
1001
0001
0011
0100
1100
0000
0000
0011
0000
1000
1100
0100
0000
0011
0000
1100
0000
0000
0001
0011
1110
0000
1100
0000
0011
0000
0111
0100
1000
1000
0000
,
0001
0000
0011
0000
1100
0000
1111
0000
0011
0000
1100
0010
1100
0001
0011
1100
0000
1111
0000
0011
1100
0000
1101
0000
0010
1001
0110
0000
1111
0000
0000
1111
0000
1100
0000
0011
0001
0000
1100
0000
0000
0100
0001
1001
0000
0101
1000
0000
,
0011
0000
1100
1000
0011
0000
1111
0000
1101
0010
0111
1000
1100
0001
0000
1010
0111
0000
1101
0010
0000
0001
1100
0000
0000
0001
0000
1100
0000
0011
0000
0000
0000
1102
0000
0010
1000
1100
0000
0010
0000
0000
1100
0000
0000
0003
0220
0000
,
1000
0000
0000
0000
0000
0001
0000
0000
1000
0330
1000
0000
0001
0110
0100
0000
0000
1111
0000
1000
0010
0011
1000
1000
0001
0001
0110
0000
1100
0100
0001
0000
1011
0000
1100
0000
0001
0000
0011
0000
1111
0100
1000
0011
0010
1100
0000
1111
,
0011
1000
0100
1000
0000
0011
0011
0000
1100
0000
0001
0011
0100
1000
0000
0011
0001
0000
0000
0000
0000
1101
0000
0001
0000
1100
0011
0011
0000
0000
1100
0011
0001
0000
1010
1100
0000
0011
0011
0000
1100
1100
0011
0001
0000
1100
0000
1100
,
0002
0010
0000
1110
0000
0000
0110
1010
0000
1100
0003
0000
1100
0001
0011
0000
1100
0000
0100
0001
0001
0000
1000
0000
1101
0001
0000
0100
0011
1100
0000
1101
0000
0011
0000
0100
1000
0000
0011
0010
0000
0000
1100
0000
0011
0011
0000
1100
,
1100
0000
0011
0010
1100
0000
1100
0011
0000
0001
0010
0000
0000
1101
0000
0001
0001
0100
1011
0000
0001
1100
0010
0000
1100
0011
0011
1000
1100
0000
0011
0010
1000
1000
0100
0101
0010
0001
0000
1100
0000
0000
0011
1001
0100
1000
0000
1001
,
0100
0011
0000
1111
0000
0000
1101
0010
0011
0000
1100
0000
0001
0010
0000
0101
0000
1100
0000
0011
0000
1001
0010
0000
1100
0011
0000
1000
0000
1100
0000
0011
0000
0000
1000
0101
1100
0000
0011
0000
0010
1100
1100
0000
0011
0011
1100
0000
,
1000
0000
0101
0011
0000
1101
0000
0000
0000
0100
0001
0010
0000
1101
1100
0001
0010
0011
1100
0000
0011
1100
0100
0011
1100
0000
0001
0010
0011
1100
1100
0000
0000
0001
0010
1100
0000
0100
0010
0001
0000
0000
1100
0000
0001
1101
0001
0011
,
0000
0000
1100
0000
0000
0011
0010
1100
1100
0111
0011
0000
1000
1100
0000
0001
0010
0110
1100
1000
0000
0000
1001
0000
0100
0100
0000
0011
1001
1100
0000
0000
0011
1101
1100
0000
0000
0011
1001
1100
0000
0011
0010
0000
1000
1100
0000
0011
,
0000
0000
0000
0000
0000
0000
0000
0000
1000
0000
0000
0000
0000
0000
0000
0000
1101
0000
0000
0000
0000
0000
0000
0000
0011
0000
0000
0000
0000
0000
0000
0000
1100
0000
0000
0000
1100
0000
0000
0000
0001
0000
1100
0000
0011
0000
0000
0000
0010
0000
0000
0000
1120
0000
0000
0000
0000
0000
0000
0000
1100
0000
0000
0000
0001
0000
0000
0000
0000
0000
0000
0000
0100
0000
0000
0000
1000
0000
0000
0000
0000
0000
0000
0000
1101
0000
0000
0000
0000
0000
0000
0000
0001
0001
0000
0000
0000
0000
0000
0001
0000
0000
1100
0000
0000
0000
0000
0000
0000
0000
0000
0001
1100
0000
0000
0000
0000
0001
0000
0000
0201
0000
0000
0000
0000
0000
0000
0000
0000
0000
0000
0000
0001
0000
0000
0001
0000
0000
0000
0000
1030
0000
0000
0000
0000
0000
0000
0001
0020
0000
0000
0000
0000
0000
0000
0000
2000
0000
0000
0000
0000
0000
0000
0000
0000
0000
0000
0000
0000
0000
0000
0000
0000
0000
0000
0000
0000
0000
0000
0000
0300
0000
0000
0000
0000
0000
0000
0000
0002
0000
0000
0000
,
0000
0000
0000
0000
0000
0000
0000
0000
0000
0000
0000
0000
3000
0000
0000
0000
0000
0000
0000
0000
0200
0000
0000
0000
0000
0000
0000
0000
0000
0000
0000
0000
0000
0000
0000
0000
0030
0000
0000
0000
0000
0000
0000
0000
0003
0000
0000
0000
0010
0000
0000
0002
0000
0000
0000
0000
1000
2000
0000
0000
0000
0000
0000
0000
0000
0000
0000
0000
0000
0000
0000
0000
0300
0000
0000
0000
0000
0000
0000
0000
0000
0000
0000
0000
0200
0000
0000
0000
0000
0000
0000
0000
0000
0000
0000
0000
0020
0000
0000
0000
0000
0000
3000
0000
0000
0000
0000
0000
0000
0000
0000
0000
0000
0000
0000
0000
0000
0003
0000
0000
0000
0000
0000
0000
2000
0000
0001
0000
0000
0000
0000
0000
0000
0000
0000
0000
0000
0000
0000
0000
0000
0000
0000
0000
0002
0000
0000
0000
0000
0000
0000
0000
0000
0000
0000
0000
0000
0000
0000
0300
0000
0000
0000
0000
0000
0000
0000
0000
0000
0000
0000
0000
0000
0000
0000
0000
0000
0000
0000
0000
0230
0000
0000
0000
0000
0000
0000
0000
0000
0000
0000
0000
,
0000
0000
0000
0000
0000
0000
0000
0000
3000
0000
0000
0000
0000
0000
0000
0000
0000
0000
0000
0000
0000
0000
0000
0000
0003
0000
0000
0000
0002
0000
0000
0000
0000
0000
0000
0000
0000
0000
0000
0000
0300
0000
0000
0000
0000
0000
0000
0000
0000
0000
0000
0000
0000
0000
0000
0000
0000
0000
0000
0000
1020
0000
0000
0000
0000
0000
0000
0000
0200
0000
0000
0000
0003
0000
0000
0000
0000
0000
0000
0000
0000
0000
0000
0000
2000
0000
0000
0001
0000
0000
0000
0000
0000
0000
0000
0000
0000
0000
0000
0001
0000
0000
0000
0000
0000
0000
0000
0000
0000
0000
0000
0000
0000
0000
0000
0000
0000
0000
0000
0000
0000
0000
0000
0000
0002
0000
0000
0000
0000
0000
0000
0000
0000
0000
0000
0000
0000
0000
0000
0000
0000
0000
0000
0000
0000
0000
0000
0000
0000
0000
0000
0000
0000
0000
0000
0000
0000
0000
0000
0000
0000
0000
0000
0000
0000
0000
0000
0000
3000
0000
0000
0000
0000
0000
0000
0000
0000
0000
0000
0000
0000
0000
0000
0000
0003
0000
0000
0000
0000
0000
0000
0000
,
0000
0000
0000
0000
0330
0000
0000
0000
0000
0000
0000
0000
2002
0000
0000
0000
0000
0000
0000
0000
0000
0000
0000
0000
0000
0000
0000
0000
0000
0000
0000
0000
0000
0000
0000
0000
0120
0000
0000
0000
0000
0000
0000
0000
0000
0000
0000
0000
0000
0000
0000
0000
0000
0000
0000
0000
0000
0000
0000
0000
0000
0000
0000
0000
3000
0000
0000
0000
0000
0000
0000
0000
0000
0000
0000
0000
0000
0000
0000
0000
0000
0000
0000
0000
0000
0000
0000
0000
0003
0000
0002
0000
0000
0000
0000
0000
0000
0000
0000
1000
0000
0000
0000
0000
0000
0000
0000
0000
0200
0000
0000
0000
0000
0000
0000
0000
0000
0000
0000
0000
0000
0000
0000
0000
0000
0000
0000
0000
0000
1000
0000
0000
1000
0000
0000
0000
0000
0000
0000
0000
0000
0000
0000
0000
0003
0000
0000
0000
0000
0000
0000
0000
0000
0000
0000
0000
0000
0000
0000
0001
2000
0000
0000
0000
0000
0000
0000
0000
0000
0000
0000
0000
0000
0000
0000
0000
0000
0000
0000
0000
0002
0000
0000
0000
0000
0000
0000
0000
0000
0000
0000
0000
,
0330
0000
0000
0000
0000
0000
0000
0000
0000
0000
0000
0000
0000
0000
0000
0000
0010
0000
0000
0000
0220
0000
0000
0000
3000
0000
0000
0000
0000
0000
0000
0000
0000
0000
0000
0000
0003
0000
0000
0000
0000
0000
0000
0000
0000
0000
0000
0000
0000
0000
0000
0000
0000
0000
0000
0000
0000
0000
0000
0000
0002
0000
0000
0000
0000
0000
0000
0000
2300
0000
0000
0000
0030
0000
0000
0000
0000
0000
0000
0000
0000
0000
0000
0000
0020
0000
0000
0000
0000
0000
0000
0000
0200
0000
0000
0000
0000
0000
0000
0000
0000
0000
0000
0000
0000
0000
0000
0000
0000
0000
0000
0000
0000
0000
0000
0000
0000
0000
0000
0000
0000
0000
0000
0000
0000
0000
0003
0000
0000
0000
0000
0000
0000
0000
0000
0000
0000
0000
0000
0000
3002
0000
0000
0000
0000
0000
0000
0000
0000
0000
0000
0000
0000
0000
0000
0000
0000
0000
0000
0000
0300
0000
1000
0000
0000
0000
0000
0000
0030
0000
0000
0000
0010
0000
0000
0000
0000
1100
0000
0000
0100
0000
0000
0000
0000
0000
1000
0000
0000
0220
0000
0000
,
0000
0000
0000
0000
0000
0000
0000
0000
0000
0000
0000
0000
0000
0000
0000
0000
0000
0000
0000
0000
0000
0000
0000
0000
0000
0000
0000
1000
0000
0000
0000
0000
0000
0000
0000
0000
0000
0000
0000
0000
1000
0000
0330
0000
0000
0100
0000
0000
0003
0000
0000
1000
0000
0000
0000
0000
0000
0000
0000
0000
0022
0000
0000
1000
0000
0000
0000
0000
0000
0100
0000
0000
0000
0000
0000
0000
0000
0000
0000
0000
0000
0000
0000
0000
1100
0000
0000
0000
0000
0000
0000
0000
0000
0000
0000
0000
0000
0000
0000
0000
0000
0000
0000
0000
0000
0000
0000
0000
0000
0000
0000
0000
2200
0000
0000
0000
0000
0000
0000
0000
0000
0000
0000
0000
0000
0000
0000
0000
0000
0000
0000
0000
0000
0000
0000
0000
0000
0000
0000
0000
0000
0000
0000
0000
0000
0000
0000
0000
0000
0000
0000
0000
0000
0000
0000
0000
0000
0000
0000
0000
0000
0000
0000
0000
0000
0000
0000
0000
0000
0000
0000
0000
0000
0000
0000
0000
0000
0000
0000
0000
0000
0000
0000
0000
0000
0000
0000
0000
0000
0000
0000
0000
,
0000
0000
0000
0000
,
0000
0000
0000
0000
0000
0000
0000
0000
0000
0000
0000
0000
0000
0000
0000
0000
0000
0000
0000
0000
0000
0000
0000
0000
0000
0000
0000
0000
0000
0000
0000
0000
0000
0000
0000
0000
0000
0000
0000
0000
0300
0000
0000
0000
3000
0000
0000
0000
0100
0000
0000
0000
0000
0000
0000
0000
1000
0000
0000
0000
0000
0000
0000
0000
0200
0000
0000
0000
1000
0000
0000
0000
0000
0000
0000
0000
2000
0000
0000
0000
0033
0000
0000
0000
0001
0000
0000
0010
0000
0000
0000
0000
0000
0000
0000
0000
0000
0000
0000
0002
0000
0000
0010
0000
0000
0000
0000
0000
0000
0000
0000
0020
0000
0000
0000
0000
0000
0000
0000
0000
0000
0000
0000
0000
0000
0000
0000
0000
0000
0000
0000
0000
0000
0000
0000
0000
0000
0000
0000
0000
0000
0000
0000
0000
0000
0000
0000
0000
0000
0000
0000
3333
0000
0000
0000
0000
0000
0000
0000
0000
0000
0000
0000
0000
0000
0000
0000
0000
0000
0000
0000
0000
0000
0000
0000
0000
0000
0000
0000
0000
0000
0000
0000
0000
0000
0000
0000
0000
0000
0000
0000
0000
;
